<?xml version="1.0" standalone="no"?>
<!DOCTYPE svg PUBLIC "-//W3C//DTD SVG 1.1//EN" "http://www.w3.org/Graphics/SVG/1.1/DTD/svg11.dtd" >
<svg xmlns="http://www.w3.org/2000/svg" xmlns:xlink="http://www.w3.org/1999/xlink" version="1.1">
<metadata>
Created by FontForge 20161116 at Sun Dec  7 10:41:57 2014
 By Jimmy Wärting
Copyright (c) 2014 by Hanken Design Co.. All rights reserved.
</metadata>
<defs>
<font id="Hanken-Light" horiz-adv-x="637" >
  <font-face 
    font-family="Hanken Light"
    font-weight="300"
    font-stretch="normal"
    units-per-em="1000"
    panose-1="0 0 0 0 0 0 0 0 0 0"
    ascent="800"
    descent="-200"
    x-height="481"
    cap-height="759"
    bbox="-78 -228 1126 960"
    underline-thickness="60"
    underline-position="-180"
    unicode-range="U+000D-25CA"
  />
<missing-glyph horiz-adv-x="1000" 
 />
    <glyph glyph-name=".notdef" horiz-adv-x="1000" 
 />
    <glyph glyph-name="NULL" horiz-adv-x="0" 
 />
    <glyph glyph-name="NULL" horiz-adv-x="0" 
 />
    <glyph glyph-name="nonmarkingreturn" unicode="&#xd;" horiz-adv-x="0" 
 />
    <glyph glyph-name="space" unicode=" " horiz-adv-x="351" 
 />
    <glyph glyph-name="Eth" unicode="&#xd0;" horiz-adv-x="784" 
d="M101 353h-40q-12 0 -20.5 8.5t-8.5 21.5q0 12 8.5 20.5t20.5 8.5h40v318q0 12 8.5 20.5t21.5 8.5h241q75 0 137 -32.5t106.5 -85t68.5 -120t24 -137.5q0 -86 -29.5 -157t-77 -121.5t-107.5 -78t-121 -27.5h-246q-18 0 -26 16q-6 14 0 26v311zM441 383q0 -13 -8.5 -21.5
t-20.5 -8.5h-252v-295h213q61 0 112 29.5t87.5 76t56.5 104.5t20 116q0 59 -20 116t-56.5 101.5t-87.5 72t-113 27.5h-212v-289h252q12 0 20.5 -8.5t8.5 -20.5z" />
    <glyph glyph-name="eth" unicode="&#xf0;" 
d="M480 242q0 38 -14.5 71.5t-39 58.5t-58 39.5t-71.5 14.5t-71.5 -14.5t-58.5 -39.5t-39.5 -58.5t-14.5 -71.5t14.5 -71.5t39.5 -58t58.5 -39t71.5 -14.5t71.5 14.5t58 39t39 58t14.5 71.5zM616 583q0 -12 -8.5 -20.5t-20.5 -8.5h-48v-525q0 -12 -8.5 -20.5t-20.5 -8.5
t-21 8.5t-9 20.5v56q-35 -41 -82.5 -63t-100.5 -22q-50 0 -94.5 19t-77.5 52t-52 77t-19 94t19 94.5t52 77.5t77.5 52t94.5 19q53 0 100.5 -22t82.5 -63v154h-243q-13 0 -21.5 8.5t-8.5 20.5t8.5 20.5t21.5 8.5h243v125q0 12 9 20.5t21 8.5t20.5 -8.5t8.5 -20.5v-125h48
q12 0 20.5 -8.5t8.5 -20.5z" />
    <glyph glyph-name="Lslash" unicode="&#x141;" horiz-adv-x="434" 
d="M302 469q6 -11 3.5 -22.5t-13.5 -17.5l-136 -79v-292h238q13 0 21.5 -8.5t8.5 -20.5t-8.5 -20.5t-21.5 -8.5h-267q-12 0 -20.5 8.5t-8.5 20.5v287l-46 -27q-11 -6 -22.5 -3t-18.5 14q-6 11 -3 22.5t14 17.5l76 44v346q0 12 8.5 20.5t20.5 8.5t20.5 -8.5t8.5 -20.5v-312
l106 62q11 6 22.5 3t17.5 -14z" />
    <glyph glyph-name="lslash" unicode="&#x142;" horiz-adv-x="255" 
d="M255 441q6 -11 3 -22.5t-14 -18.5l-88 -50v-321q0 -12 -8.5 -20.5t-20.5 -8.5t-20.5 8.5t-8.5 20.5v287l-46 -27q-11 -6 -22.5 -3t-18.5 14q-6 11 -3 22.5t14 17.5l76 44v346q0 12 8.5 20.5t20.5 8.5t20.5 -8.5t8.5 -20.5v-312l58 33q11 7 23 4t18 -14z" />
    <glyph glyph-name="Scaron" unicode="&#x160;" horiz-adv-x="565" 
d="M499 206q0 -42 -16.5 -79.5t-44.5 -65.5t-65.5 -44.5t-80.5 -16.5q-42 0 -79.5 16.5t-65.5 44.5t-44.5 65.5t-16.5 79.5q0 12 8.5 21t21.5 9q12 0 20.5 -9t8.5 -21q0 -30 11.5 -57t31.5 -47t47 -31.5t57 -11.5t57 11.5t47.5 31.5t32 47t11.5 57q0 49 -26 77.5t-65.5 47
t-85.5 33t-85.5 37t-65.5 57.5t-26 95q0 43 16.5 80.5t44.5 65.5t65.5 44t79.5 16q43 0 80.5 -16t65.5 -44t44.5 -65.5t16.5 -80.5q0 -12 -9 -20.5t-21 -8.5t-20.5 8.5t-8.5 20.5q0 30 -11.5 57t-32 47.5t-47.5 32t-57 11.5t-57 -11.5t-47 -32t-31.5 -47.5t-11.5 -57
q0 -47 26 -73t65.5 -44t85.5 -33t85.5 -38t65.5 -60t26 -99zM411 906q0 -9 -7 -18l-94 -97q-9 -7 -18 -7t-18 7l-94 97q-7 9 -7 18q0 11 7 18.5t18 7.5q10 0 18 -8l76 -78l76 78q8 8 18 8q11 0 18 -7.5t7 -18.5z" />
    <glyph glyph-name="scaron" unicode="&#x161;" horiz-adv-x="437" 
d="M367 136q0 -32 -11.5 -57.5t-31 -43t-46 -26.5t-57.5 -9q-29 0 -56.5 9.5t-50 26.5t-36 42t-13.5 56q0 12 8.5 20.5t20.5 8.5t21 -8.5t9 -20.5q0 -20 9 -34t23 -23t31 -13.5t34 -4.5q38 0 62.5 17.5t24.5 59.5q0 32 -17.5 49.5t-43 28.5t-56 19.5t-56 22t-43 37
t-17.5 63.5q0 28 11 52t29.5 41t43 26.5t52.5 9.5q27 0 52 -9.5t43.5 -26.5t29.5 -41t11 -52q0 -12 -9 -20.5t-21 -8.5t-20.5 8.5t-8.5 20.5q0 32 -23 51t-54 19t-54 -19t-23 -51q0 -24 17.5 -37.5t43 -24t56 -20.5t56 -26.5t43 -43t17.5 -68.5zM348 641q0 -9 -7 -18
l-94 -97q-9 -7 -18 -7t-18 7l-94 97q-7 9 -7 18q0 11 7 18.5t18 7.5q10 0 18 -8l76 -78l76 78q8 8 18 8q11 0 18 -7.5t7 -18.5z" />
    <glyph glyph-name="Yacute" unicode="&#xdd;" horiz-adv-x="566" 
d="M555 730q0 -9 -4 -14l-229 -410v-277q0 -12 -8.5 -20.5t-20.5 -8.5t-20.5 8.5t-8.5 20.5v277l-229 410q-4 5 -4 14q0 12 8.5 20.5t20.5 8.5q18 0 26 -15l207 -370l207 370q8 15 26 15q12 0 20.5 -8.5t8.5 -20.5zM227.986 829q0 -12 8.49902 -20.5q8.5 -8.5 20.499 -8.5
q10.999 0 20.999 8l88.9941 90q8.99902 9 8.99902 21t-8.49902 20.5t-20.499 8.5q-10.999 0 -20.998 -8l-89.9951 -90q-7.99902 -10 -7.99902 -21z" />
    <glyph glyph-name="yacute" unicode="&#xfd;" horiz-adv-x="457" 
d="M435 456q0 -5 -2 -11l-167 -414l-87 -213q-8 -18 -28 -18q-12 0 -20.5 8.5t-8.5 20.5q0 5 2 11l83 202l-163 403q-2 6 -2 11q0 12 8.5 20.5t20.5 8.5q20 0 28 -18l139 -357l140 357q3 8 11 13t16 5q12 0 21 -8.5t9 -20.5zM203.987 602q0 -12 8.5 -20.5
q8.49902 -8.5 20.498 -8.5q11 0 20.999 8l88.9951 90q8.99902 9 8.99902 21t-8.49902 20.5q-8.5 8.5 -20.499 8.5q-11 0 -20.999 -8l-89.9941 -90q-8 -10 -8 -21z" />
    <glyph glyph-name="Thorn" unicode="&#xde;" horiz-adv-x="543" 
d="M157 596v-295h147q31 0 58 11.5t47 32t31.5 47.5t11.5 57t-11.5 57t-31.5 47t-47 31.5t-58 11.5h-147zM128 0q-13 0 -21.5 8.5t-8.5 20.5v701q0 12 8.5 20.5t21.5 8.5q12 0 20.5 -8.5t8.5 -20.5v-75h147q43 0 80.5 -16t65.5 -44t44.5 -65.5t16.5 -80.5t-16.5 -80.5
t-44.5 -65.5t-65.5 -44t-80.5 -16h-147v-214q0 -12 -8.5 -20.5t-20.5 -8.5z" />
    <glyph glyph-name="thorn" unicode="&#xfe;" 
d="M583 243q0 -50 -19 -94.5t-52 -77.5t-77 -52t-94 -19q-54 0 -101.5 22t-82.5 63v-280q0 -12 -8.5 -21t-20.5 -9q-13 0 -21.5 9t-8.5 21v925q0 12 9 20.5t21 8.5t20.5 -8.5t8.5 -20.5v-330q35 41 82.5 63t101.5 22q50 0 94 -19t77 -52t52 -77t19 -94zM524 243
q0 38 -14.5 71.5t-39 58t-58 39t-71.5 14.5t-71.5 -14.5t-58.5 -39t-39.5 -58t-14.5 -71.5t14.5 -71.5t39.5 -58.5t58.5 -39.5t71.5 -14.5t71.5 14.5t58 39.5t39 58.5t14.5 71.5z" />
    <glyph glyph-name="Zcaron" unicode="&#x17d;" horiz-adv-x="591" 
d="M525 29q0 -12 -8.5 -20.5t-20.5 -8.5h-425q-12 0 -20.5 8.5t-8.5 20.5q0 10 4 15l398 657h-373q-12 0 -20.5 8.5t-8.5 20.5t8.5 20.5t20.5 8.5h425q12 0 20.5 -8.5t8.5 -20.5q0 -10 -4 -15l-398 -656h373q12 0 20.5 -9t8.5 -21zM425 906q0 -9 -7 -18l-94 -97
q-9 -7 -18 -7t-18 7l-94 97q-7 9 -7 18q0 11 7 18.5t18 7.5q10 0 18 -8l76 -78l76 78q8 8 18 8q11 0 18 -7.5t7 -18.5z" />
    <glyph glyph-name="zcaron" unicode="&#x17e;" horiz-adv-x="492" 
d="M470 29q0 -12 -9 -20.5t-21 -8.5h-369q-12 0 -20.5 8.5t-8.5 20.5q0 9 7 20l327 377h-305q-12 0 -20.5 8.5t-8.5 20.5q0 13 8.5 21.5t20.5 8.5h369q12 0 21 -8.5t9 -20.5q0 -10 -8 -20l-326 -377h304q12 0 21 -9t9 -21zM375 641q0 -9 -7 -18l-94 -97q-9 -7 -18 -7t-18 7
l-94 97q-7 9 -7 18q0 11 7 18.5t18 7.5q10 0 18 -8l76 -78l76 78q8 8 18 8q11 0 18 -7.5t7 -18.5z" />
    <glyph glyph-name="brokenbar" unicode="&#xa6;" horiz-adv-x="255" 
d="M156 -197q0 -12 -8.5 -20.5t-20.5 -8.5t-20.5 8.5t-8.5 20.5v378q0 12 8.5 20.5t20.5 8.5t20.5 -8.5t8.5 -20.5v-378zM156 359q0 -12 -8.5 -20.5t-20.5 -8.5t-20.5 8.5t-8.5 20.5v378q0 12 8.5 20.5t20.5 8.5t20.5 -8.5t8.5 -20.5v-378z" />
    <glyph glyph-name="minus" unicode="&#x2212;" horiz-adv-x="533" 
d="M501 243q0 -13 -8.5 -21.5t-20.5 -8.5h-411q-12 0 -20.5 8.5t-8.5 21.5q0 12 8.5 20.5t20.5 8.5h411q12 0 20.5 -8.5t8.5 -20.5z" />
    <glyph glyph-name="multiply" unicode="&#xd7;" horiz-adv-x="552" 
d="M512 9q-9 -9 -21 -9t-21 9l-194 194l-194 -194q-9 -9 -21 -9q-13 0 -20 9q-9 8 -9 20.5t9 20.5l194 194l-194 194q-9 9 -9 21t9 21q8 8 20.5 8t20.5 -8l194 -194l194 194q9 8 21 8t21 -8q8 -9 8 -21t-8 -21l-194 -194l194 -194q8 -8 8 -20.5t-8 -20.5z" />
    <glyph glyph-name="exclam" unicode="!" horiz-adv-x="285" 
d="M172 217q0 -12 -9 -20.5t-21 -8.5t-20.5 8.5t-8.5 20.5v522q0 12 8.5 20.5t20.5 8.5t21 -8.5t9 -20.5v-522zM186 44q0 -19 -13 -31q-13 -13 -31 -13t-31 13t-13 31t13 31q12 13 31 13t31 -13q13 -12 13 -31z" />
    <glyph glyph-name="quotedbl" unicode="&#x22;" horiz-adv-x="213" 
d="M193 603q0 -12 -8.5 -20.5t-20.5 -8.5t-20.5 8.5t-8.5 20.5v127q0 12 8.5 20.5t20.5 8.5t20.5 -8.5t8.5 -20.5v-127zM78 603q0 -12 -8.5 -20.5t-20.5 -8.5t-20.5 8.5t-8.5 20.5v127q0 12 8.5 20.5t20.5 8.5t20.5 -8.5t8.5 -20.5v-127z" />
    <glyph glyph-name="numbersign" unicode="#" horiz-adv-x="836" 
d="M826 490q0 -13 -8.5 -21.5t-21.5 -8.5h-167l-62 -154h143q13 0 21.5 -8.5t8.5 -20.5q0 -13 -8.5 -21.5t-21.5 -8.5h-167l-92 -229q-8 -18 -27 -18q-5 0 -11 2q-11 5 -16 16t0 22l83 207h-206l-93 -229q-7 -18 -27 -18q-3 0 -5.5 0.5t-5.5 1.5q-11 5 -16 16t0 22l83 207
h-171q-12 0 -20.5 8.5t-8.5 21.5q0 12 8.5 20.5t20.5 8.5h195l62 154h-171q-12 0 -20.5 8.5t-8.5 21.5q0 12 8.5 20.5t20.5 8.5h195l92 229q5 11 16 16t23 0q11 -5 16 -16t0 -22l-84 -207h207l92 229q5 11 16 16t22 0t16 -16t0 -22l-83 -207h143q13 0 21.5 -8.5t8.5 -20.5z
M566 460h-206l-63 -154h207z" />
    <glyph glyph-name="dollar" unicode="$" horiz-adv-x="565" 
d="M489 206q0 -39 -14 -74t-38 -62t-56.5 -45t-69.5 -23v-83q0 -12 -8.5 -20.5t-20.5 -8.5t-20.5 8.5t-8.5 20.5v83q-38 5 -70 23t-56 45.5t-37.5 62t-13.5 73.5q0 12 8.5 21t21.5 9q12 0 20.5 -9t8.5 -21q0 -27 9 -51t25 -43t37.5 -32t46.5 -18v300q-35 12 -66.5 29
t-56.5 41t-39.5 55.5t-14.5 72.5q0 39 13.5 74t37.5 62t56 45t70 23v82q0 12 8.5 20.5t20.5 8.5t20.5 -8.5t8.5 -20.5v-82q37 -5 69.5 -23t56.5 -45t38 -62t14 -74q0 -12 -9 -20.5t-21 -8.5t-20.5 8.5t-8.5 20.5q0 54 -34 94t-85 51v-301q36 -12 68.5 -28t56.5 -39.5
t38.5 -55t14.5 -75.5zM253 425v279q-25 -5 -46.5 -18t-37.5 -32t-25 -43t-9 -51t10 -48t26.5 -37.5t37.5 -28.5t44 -21zM430 206q0 30 -9.5 51.5t-26 37.5t-38 27t-45.5 20v-280q25 5 47 18t38 32t25 43t9 51z" />
    <glyph glyph-name="percent" unicode="%" horiz-adv-x="547" 
d="M256 651q0 -26 -9.5 -48t-26.5 -39t-39.5 -26.5t-47.5 -9.5q-26 0 -48 9.5t-39 26.5t-26.5 39t-9.5 48q0 25 9.5 47.5t26.5 39.5t39 26.5t48 9.5q25 0 47.5 -9.5t39.5 -26.5t26.5 -39.5t9.5 -47.5zM203 651q0 29 -20.5 49.5t-49.5 20.5t-49.5 -20.5t-20.5 -49.5
t20.5 -49.5t49.5 -20.5t49.5 20.5t20.5 49.5zM434 737q0 -5 -2 -11l-284 -708q-8 -18 -28 -18q-12 0 -20.5 8.5t-8.5 20.5q0 5 2 11l284 708q8 18 27 18q12 0 21 -8.5t9 -20.5zM537 123q0 -26 -9.5 -48t-26.5 -39t-39.5 -26.5t-47.5 -9.5q-26 0 -48 9.5t-39 26.5t-26.5 39
t-9.5 48q0 25 9.5 47.5t26.5 39.5t39 26.5t48 9.5q25 0 47.5 -9.5t39.5 -26.5t26.5 -39.5t9.5 -47.5zM484 123q0 29 -20.5 49.5t-49.5 20.5t-49.5 -20.5t-20.5 -49.5t20.5 -49.5t49.5 -20.5t49.5 20.5t20.5 49.5z" />
    <glyph glyph-name="ampersand" unicode="&#x26;" horiz-adv-x="738" 
d="M245 429q-22 -22 -42 -41.5t-35 -40.5t-24 -46.5t-9 -58.5q0 -38 14.5 -71.5t39 -58t58 -39t71.5 -14.5q33 0 58.5 9t46.5 24t40.5 35t41.5 42zM588 169l118 -118q9 -9 9 -21t-8.5 -20.5t-21.5 -8.5q-12 0 -20 8l-118 119q-27 -27 -51 -50.5t-50 -40.5t-56.5 -27
t-71.5 -10q-50 0 -94 19t-77 52t-52 77t-19 94q0 41 10 71.5t27 56.5t40.5 49.5l50.5 50.5q-27 26 -41.5 57t-14.5 69q0 35 13.5 66t36.5 54t54 36.5t66 13.5t66 -13.5t54 -36.5t36.5 -54t13.5 -66q0 -32 -12.5 -65t-36.5 -55q-9 -9 -21 -9t-20.5 8.5t-8.5 21.5
q0 8 6.5 16.5t14 19.5t14 26t6.5 37q0 23 -9 43t-24 35t-35.5 24t-43.5 9t-43 -9t-35 -24t-24 -35t-9 -43q0 -19 4.5 -33t12.5 -26t19 -23l23 -23l281 -280l120 120q8 8 21 8q12 0 20.5 -8.5t8.5 -20.5t-9 -21z" />
    <glyph glyph-name="quotesingle" unicode="'" horiz-adv-x="98" 
d="M78 603q0 -12 -8.5 -20.5t-20.5 -8.5t-20.5 8.5t-8.5 20.5v127q0 12 8.5 20.5t20.5 8.5t20.5 -8.5t8.5 -20.5v-127z" />
    <glyph glyph-name="parenleft" unicode="(" horiz-adv-x="295" 
d="M211 -226q-8 0 -14.5 3.5t-10.5 11.5q-66 113 -99 235t-33 245.5t33 245.5t99 235q6 11 17.5 14t22.5 -3t14 -17.5t-4 -22.5q-62 -106 -92.5 -220.5t-30.5 -231t30.5 -231t92.5 -220.5q7 -11 4 -22.5t-14 -17.5q-7 -4 -15 -4z" />
    <glyph glyph-name="parenright" unicode=")" horiz-adv-x="295" 
d="M83 -226q-9 0 -14 4q-11 6 -14 17.5t3 22.5q62 106 93 220.5t31 231t-31 231t-93 220.5q-6 11 -3 22.5t14 17.5t22.5 3t17.5 -14q66 -113 98.5 -235t32.5 -245.5t-32.5 -245.5t-98.5 -235q-9 -15 -26 -15z" />
    <glyph glyph-name="asterisk" unicode="*" horiz-adv-x="311" 
d="M279 676q2 -8 -1.5 -15.5t-11.5 -10.5l-61 -25l33 -64q4 -8 2 -15.5t-9 -12.5t-15.5 -4t-13.5 8l-46 53l-47 -53q-6 -8 -16 -8q-8 0 -12 4q-8 5 -10 12.5t2 15.5l33 64l-60 25q-8 3 -11.5 10.5t-1.5 15.5q5 19 24 16l68 -8l9 63q1 8 7.5 14t14.5 6t14 -6t8 -14l8 -63
l69 8q8 2 15 -3t9 -13z" />
    <glyph glyph-name="plus" unicode="+" horiz-adv-x="553" 
d="M519 244q0 -11 -8 -21q-10 -8 -21 -8h-184v-185q0 -11 -9 -20q-8 -9 -21 -9q-12 0 -20.5 8.5t-8.5 20.5v185h-184q-13 0 -21.5 8.5t-8.5 20.5t8.5 20.5t21.5 8.5h184v185q0 12 8.5 20.5t20.5 8.5t21 -8.5t9 -20.5v-185h184q12 0 20.5 -8.5t8.5 -20.5z" />
    <glyph glyph-name="comma" unicode="," horiz-adv-x="189" 
d="M144 -11q0 -30 -13.5 -57t-38.5 -46q-9 -6 -19 -6q-12 0 -20 8t-8 20q0 14 11 23q14 14 21.5 26t7.5 32v13q-14 5 -22 16.5t-8 25.5q0 19 13 31t31 12q23 0 34 -14.5t11 -35.5v-48z" />
    <glyph glyph-name="hyphen" unicode="-" horiz-adv-x="473" 
d="M441 243q0 -13 -8.5 -21.5t-20.5 -8.5h-351q-12 0 -20.5 8.5t-8.5 21.5q0 12 8.5 20.5t20.5 8.5h351q12 0 20.5 -8.5t8.5 -20.5z" />
    <glyph glyph-name="period" unicode="." horiz-adv-x="178" 
d="M133 44q0 -18 -13 -31t-31 -13t-31 13t-13 31q0 19 12.5 31t31.5 12t31.5 -12t12.5 -31z" />
    <glyph glyph-name="slash" unicode="/" horiz-adv-x="454" 
d="M442 726l-375 -936q-8 -18 -28 -18q-3 0 -11 2q-11 5 -16 16t0 22l375 936q5 11 16 16t22 0t16.5 -16t0.5 -22z" />
    <glyph glyph-name="zero" unicode="0" horiz-adv-x="565" 
d="M489 206q0 -42 -16.5 -79.5t-44.5 -65.5t-65.5 -44.5t-80.5 -16.5q-42 0 -79.5 16.5t-65.5 44.5t-44.5 65.5t-16.5 79.5v354q0 43 16.5 80.5t44.5 65.5t65.5 44t79.5 16q43 0 80.5 -16t65.5 -44t44.5 -65.5t16.5 -80.5v-354zM430 206v354q0 30 -11.5 57t-31.5 47
t-47 31.5t-58 11.5q-30 0 -57 -11.5t-47 -31.5t-31.5 -47t-11.5 -57v-354q0 -30 11.5 -57t31.5 -47t47 -31.5t57 -11.5q31 0 58 11.5t47 31.5t31.5 47t11.5 57z" />
    <glyph glyph-name="one" unicode="1" horiz-adv-x="436" 
d="M384 29q0 -12 -8.5 -20.5t-21.5 -8.5h-262q-12 0 -20.5 8.5t-8.5 20.5q0 13 8.5 21.5t20.5 8.5h100v618l-94 -67q-10 -7 -21.5 -5t-19.5 12q-7 11 -5 22.5t12 18.5l141 99q7 5 15 5.5t15 -3.5q16 -8 16 -26v-674h103q13 0 21.5 -8.5t8.5 -21.5z" />
    <glyph glyph-name="two" unicode="2" horiz-adv-x="565" 
d="M519 29q0 -12 -9 -20.5t-21 -8.5h-384q-12 0 -20.5 8.5t-8.5 20.5q0 46 15 84t38.5 70.5t53.5 62t60 59.5l140 140q45 45 45 109q0 31 -11 58t-30.5 46.5t-46.5 31t-58 11.5q-30 0 -56.5 -11.5t-47 -32t-32 -47.5t-11.5 -57q0 -12 -9 -20.5t-20 -8.5q-12 0 -21 8.5
t-9 20.5q0 42 16.5 79.5t44.5 65.5t65.5 44.5t79.5 16.5q44 0 81.5 -15.5t64.5 -43.5t42.5 -65.5t15.5 -81.5q0 -42 -16 -81t-46 -69l-70 -70l-70 -70q-22 -22 -47 -44t-46.5 -46.5t-36.5 -52t-18 -61.5h353q12 0 21 -9t9 -21z" />
    <glyph glyph-name="three" unicode="3" horiz-adv-x="565" 
d="M489 206q0 -43 -16.5 -80.5t-44.5 -65.5t-65.5 -44t-80.5 -16q-42 0 -79.5 16.5t-65.5 44.5t-44.5 65.5t-16.5 79.5q0 12 8.5 21t21.5 9q12 0 20.5 -9t8.5 -21q0 -30 11.5 -57t31.5 -47t47 -31.5t57 -11.5q31 0 58 11.5t47 31.5t31.5 47t11.5 57q0 31 -11.5 56.5
t-31.5 44.5t-47 29.5t-58 10.5q-12 0 -20.5 8.5t-8.5 20.5t8.5 21t20.5 9q31 0 58 11.5t47 31.5t31.5 47t11.5 57t-11.5 57t-31.5 47.5t-47 32t-58 11.5q-30 0 -57 -11.5t-47 -32t-31.5 -47.5t-11.5 -57q0 -12 -8.5 -20.5t-20.5 -8.5q-13 0 -21.5 8.5t-8.5 20.5
q0 43 16.5 80.5t44.5 65.5t65.5 44t79.5 16q43 0 80.5 -16t65.5 -44t44.5 -65.5t16.5 -80.5q0 -57 -28 -103.5t-73 -73.5q45 -27 73 -70t28 -100z" />
    <glyph glyph-name="four" unicode="4" horiz-adv-x="562" 
d="M508 333q0 -12 -8.5 -21t-21.5 -9h-69v-274q0 -12 -8.5 -20.5t-20.5 -8.5q-13 0 -21.5 8.5t-8.5 20.5v274h-289q-12 0 -21 9.5t-9 21.5q0 7 4 11l294 404q5 7 12 12t16 5q11 0 20 -9t9 -20q0 -8 -4 -12l-268 -363h236v192q0 12 8.5 20.5t21.5 8.5q12 0 20.5 -8.5
t8.5 -20.5v-192h69q13 0 21.5 -8.5t8.5 -20.5z" />
    <glyph glyph-name="five" unicode="5" horiz-adv-x="548" 
d="M491 207q0 -43 -16.5 -80.5t-44.5 -65.5t-66 -44.5t-81 -16.5t-80.5 16.5t-65.5 44.5t-44.5 65.5t-16.5 80.5q0 13 8.5 21.5t21.5 8.5q12 0 20.5 -8.5t8.5 -21.5q0 -31 11.5 -58t32 -47t47.5 -31.5t57 -11.5q31 0 58 11.5t47 31.5t32 47t12 58t-12 58t-32 47t-47 32
t-58 12h-147q-13 0 -21.5 8.5t-8.5 20.5v345q0 12 8.5 20.5t21.5 8.5h325q13 0 21.5 -8.5t8.5 -20.5t-8.5 -20.5t-21.5 -8.5h-296v-286h118q43 0 81 -16.5t66 -44.5t44.5 -66t16.5 -81z" />
    <glyph glyph-name="six" unicode="6" horiz-adv-x="543" 
d="M489 206q0 -42 -16.5 -79.5t-44.5 -65.5t-65.5 -44.5t-80.5 -16.5q-42 0 -79.5 16.5t-65.5 44.5t-44.5 65.5t-16.5 79.5v354q0 43 16.5 80.5t44.5 65.5t65.5 44t79.5 16q43 0 80.5 -16t65.5 -44t44.5 -65.5t16.5 -80.5q0 -12 -9 -20.5t-21 -8.5t-20.5 8.5t-8.5 20.5
q0 30 -11.5 57t-31.5 47t-47 31.5t-58 11.5q-30 0 -57 -11.5t-47 -31.5t-31.5 -47t-11.5 -57v-210q28 29 66 45.5t81 16.5t80.5 -16t65.5 -44t44.5 -65.5t16.5 -80.5zM430 206q0 31 -11.5 58t-31.5 47t-47 31.5t-58 11.5q-30 0 -57 -11.5t-47 -31.5t-31.5 -47t-11.5 -58
q0 -30 11.5 -57t31.5 -47t47 -31.5t57 -11.5q31 0 58 11.5t47 31.5t31.5 47t11.5 57z" />
    <glyph glyph-name="seven" unicode="7" horiz-adv-x="502" 
d="M468 719l-279 -700q-8 -19 -27 -19q-5 0 -11 2q-11 5 -16.5 16t-0.5 22l263 661h-330q-13 0 -21.5 8.5t-8.5 20.5t8.5 20.5t21.5 8.5h373q15 0 25 -13q8 -13 3 -27z" />
    <glyph glyph-name="eight" unicode="8" horiz-adv-x="565" 
d="M489 206q0 -42 -16.5 -79.5t-44.5 -65.5t-65.5 -44.5t-79.5 -16.5q-43 0 -80.5 16t-65.5 44t-44.5 65.5t-16.5 80.5q0 57 28 103.5t73 73.5q-45 27 -73 70t-28 100q0 43 16.5 80.5t44.5 65.5t65.5 44t79.5 16q43 0 80.5 -16t65.5 -44t44.5 -65.5t16.5 -80.5
q0 -57 -28 -100t-73 -70q45 -27 73 -73.5t28 -103.5zM430 553q0 30 -11.5 57t-31.5 47.5t-47 32t-58 11.5q-30 0 -57 -11.5t-47 -32t-31.5 -47.5t-11.5 -57t11.5 -56.5t31 -46t46.5 -30t57 -8.5h2h1q30 -2 57 8.5t46.5 30t31 46t11.5 56.5zM430 206q0 30 -11.5 57.5t-31 48
t-46.5 32t-57 10.5h-2h-1q-30 1 -57 -10.5t-46.5 -32t-31 -48t-11.5 -57.5t11.5 -57t31.5 -47t47 -31.5t58 -11.5q30 0 57 11.5t47 31.5t31.5 47t11.5 57z" />
    <glyph glyph-name="nine" unicode="9" horiz-adv-x="543" 
d="M467 206q0 -42 -16.5 -79.5t-44.5 -65.5t-65.5 -44.5t-80.5 -16.5q-42 0 -79.5 16.5t-65.5 44.5t-44.5 65.5t-16.5 79.5q0 12 8.5 21t20.5 9q13 0 21.5 -9t8.5 -21q0 -30 11.5 -57t31.5 -47t47 -31.5t57 -11.5q31 0 58 11.5t47 31.5t31.5 47t11.5 57v203
q-29 -29 -66.5 -45.5t-81.5 -16.5q-42 0 -79.5 16t-65.5 44t-44.5 65.5t-16.5 80.5t16.5 80.5t44.5 65.5t65.5 44t79.5 16q43 0 80.5 -16t65.5 -44t44.5 -65.5t16.5 -80.5v-347zM408 553q0 30 -11.5 57t-31.5 47.5t-47 32t-58 11.5q-30 0 -57 -11.5t-47 -32t-31.5 -47.5
t-11.5 -57t11.5 -57t31.5 -47t47 -31.5t57 -11.5q31 0 58 11.5t47 31.5t31.5 47t11.5 57z" />
    <glyph glyph-name="colon" unicode=":" horiz-adv-x="178" 
d="M133 470q0 -18 -13 -31t-31 -13t-31 13t-13 31q0 19 12.5 31t31.5 12t31.5 -12t12.5 -31zM133 44q0 -18 -13 -31t-31 -13t-31 13t-13 31q0 19 12.5 31t31.5 12t31.5 -12t12.5 -31z" />
    <glyph glyph-name="semicolon" unicode=";" horiz-adv-x="189" 
d="M144 470q0 -18 -13 -31t-31 -13t-31 13t-13 31q0 19 12.5 31t31.5 12t31.5 -12t12.5 -31zM144 -11q0 -30 -13.5 -57t-38.5 -46q-9 -6 -19 -6q-12 0 -20 8t-8 20q0 14 11 23q14 14 21.5 26t7.5 32v13q-14 5 -22 16.5t-8 25.5q0 19 13 31t31 12q23 0 34 -14.5t11 -35.5v-48
z" />
    <glyph glyph-name="less" unicode="&#x3c;" horiz-adv-x="505" 
d="M451 14q-8 -14 -25 -14q-8 0 -15 5l-338 213q-14 8 -14 25q0 16 14 25l338 213q10 6 21.5 3.5t18.5 -13.5q7 -10 4.5 -21.5t-13.5 -18.5l-298 -188l298 -189q11 -6 13.5 -17.5t-4.5 -22.5z" />
    <glyph glyph-name="equal" unicode="=" horiz-adv-x="661" 
d="M607 353q0 -12 -8.5 -20.5t-20.5 -8.5h-495q-12 0 -20.5 8.5t-8.5 20.5q0 13 8.5 21.5t20.5 8.5h495q12 0 20.5 -8.5t8.5 -21.5zM607 139q0 -12 -8.5 -20.5t-20.5 -8.5h-495q-12 0 -20.5 8.5t-8.5 20.5q0 13 8.5 21.5t20.5 8.5h495q12 0 20.5 -8.5t8.5 -21.5z" />
    <glyph glyph-name="greater" unicode="&#x3e;" horiz-adv-x="505" 
d="M451 243q0 -16 -14 -25l-338 -213q-8 -5 -15 -5q-17 0 -25 14q-7 11 -4.5 22.5t13.5 17.5l298 189l-298 188q-11 7 -13.5 18.5t4.5 21.5q6 11 17.5 13.5t22.5 -3.5l338 -213q6 -5 10 -11t4 -14z" />
    <glyph glyph-name="question" unicode="?" horiz-adv-x="594" 
d="M539 532q0 -68 -33.5 -124.5t-92.5 -88.5q-17 -10 -33 -18.5t-28 -19t-19 -26t-7 -38.5q0 -12 -8.5 -20.5t-20.5 -8.5t-21 8.5t-9 20.5q0 32 9 54.5t25 40t37.5 31t46.5 27.5q45 26 70.5 68t25.5 94q0 38 -14.5 71.5t-40 58.5t-59 39.5t-70.5 14.5q-38 0 -71.5 -14.5
t-58.5 -39.5t-39.5 -58.5t-14.5 -71.5q0 -12 -8.5 -21t-21.5 -9q-12 0 -20.5 9t-8.5 21q0 50 19 94t52 77t77.5 52t94.5 19t94 -19t77 -52t52 -77t19 -94zM341 44q0 -18 -13 -31t-31 -13t-31 13t-13 31q0 19 12.5 31.5t31.5 12.5t31.5 -12.5t12.5 -31.5z" />
    <glyph glyph-name="at" unicode="@" horiz-adv-x="593" 
d="M539 29q0 -12 -8.5 -20.5t-20.5 -8.5h-213q-50 0 -94.5 19t-77.5 52t-52 77t-19 94q0 51 19.5 96t55.5 80q37 35 82.5 52t96.5 15q49 -2 91 -22.5t73 -54t49 -78t18 -94.5q0 -24 -9 -45t-25 -37t-37 -25t-45 -9h-34q-20 0 -27 19q-30 -19 -65 -19q-26 0 -48 9.5t-39 26
t-26.5 39t-9.5 47.5t9.5 47.5t26.5 39.5t39 26.5t48 9.5q35 0 65 -19q7 19 27 19q13 0 21.5 -8.5t8.5 -21.5v-156h4q23 0 40 17t17 40q0 38 -13.5 72t-37 59.5t-55.5 41t-69 17.5q-79 3 -135 -51q-57 -54 -57 -133q0 -38 14.5 -71.5t39.5 -58t58.5 -39t71.5 -14.5h213
q12 0 20.5 -8.5t8.5 -21.5zM360 242q0 26 -18.5 45t-44.5 19t-45 -19t-19 -45t19 -44.5t45 -18.5t44.5 18.5t18.5 44.5z" />
    <glyph glyph-name="A" unicode="A" horiz-adv-x="725" 
d="M691 41q5 -11 0 -22.5t-16 -16.5q-3 -1 -5.5 -1.5t-5.5 -0.5q-20 0 -27 18l-83 195h-382l-84 -195q-5 -11 -16 -16t-22 0t-16 16.5t0 22.5l91 213l211 494q7 18 27 18q19 0 27 -18l210 -494zM529 272l-166 390l-166 -390h332z" />
    <glyph glyph-name="B" unicode="B" 
d="M583 242q0 -50 -19 -94t-52 -77t-77 -52t-94 -19h-213q-13 0 -21.5 8.5t-8.5 20.5v701q0 12 8.5 20.5t21.5 8.5h146q35 0 66 -13.5t54 -36.5t36.5 -54t13.5 -66q0 -68 -47 -118q40 -10 74.5 -31t59 -51t38.5 -67.5t14 -79.5zM385 589q0 23 -9 43.5t-24 35.5t-35 24t-43 9
h-117v-223h127q20 0 38.5 10t32.5 25.5t22 35.5t8 40zM524 242q0 39 -14.5 71.5t-39.5 56t-58.5 36.5t-70.5 13h-184v-360h184q38 0 71.5 14.5t58 39t39 58t14.5 71.5z" />
    <glyph glyph-name="C" unicode="C" horiz-adv-x="816" 
d="M731 112q-55 -54 -124.5 -83t-146.5 -29q-80 0 -149.5 30t-122 82.5t-82.5 122t-30 149.5q0 79 30 147.5t82.5 119t122 79.5t149.5 29q77 0 146.5 -29t124.5 -83q8 -8 8 -20.5t-8 -20.5q-9 -9 -21 -9t-21 9q-46 46 -105 70.5t-124 24.5q-68 0 -127 -24.5t-103 -67
t-69.5 -100.5t-25.5 -125q0 -68 25.5 -127t69.5 -103t103 -69.5t127 -25.5q65 0 124 24t105 71q9 8 21 8t21 -8q8 -9 8 -21t-8 -21z" />
    <glyph glyph-name="D" unicode="D" horiz-adv-x="784" 
d="M708 384q0 -86 -29.5 -157t-77 -121.5t-107.5 -78t-121 -27.5h-246q-18 0 -26 16q-6 14 0 26v688q0 12 8.5 20.5t21.5 8.5h241q75 0 137 -32.5t106.5 -85t68.5 -120t24 -137.5zM649 384q0 59 -20 116t-56.5 101.5t-87.5 72t-113 27.5h-212v-643h213q61 0 112 29.5
t87.5 76t56.5 104.5t20 116z" />
    <glyph glyph-name="E" unicode="E" horiz-adv-x="542" 
d="M502 29q0 -12 -8.5 -20.5t-21.5 -8.5h-344q-13 0 -21.5 8.5t-8.5 20.5v2v2v697q0 12 8.5 20.5t21.5 8.5h344q13 0 21.5 -8.5t8.5 -20.5t-8.5 -20.5t-21.5 -8.5h-315v-285h268q12 0 20.5 -8.5t8.5 -20.5t-8.5 -20.5t-20.5 -8.5h-268v-299h315q13 0 21.5 -8.5t8.5 -21.5z
" />
    <glyph glyph-name="F" unicode="F" horiz-adv-x="512" 
d="M502 730q0 -12 -8.5 -20.5t-21.5 -8.5h-315v-289h268q12 0 20.5 -8.5t8.5 -20.5t-8.5 -20.5t-20.5 -8.5h-268v-325q0 -12 -8.5 -20.5t-20.5 -8.5q-13 0 -21.5 8.5t-8.5 20.5v701q0 12 8.5 20.5t21.5 8.5h344q13 0 21.5 -8.5t8.5 -20.5z" />
    <glyph glyph-name="G" unicode="G" horiz-adv-x="839" 
d="M741 133q0 -13 -9 -20q-54 -55 -124 -84t-148 -29q-79 0 -149 30t-122 82.5t-82.5 122t-30.5 149.5q0 79 30.5 148t82.5 119t122 79t149 29q78 0 148 -29t124 -83q9 -9 9 -21t-9 -21q-8 -8 -20.5 -8t-20.5 8q-47 47 -106 71.5t-125 24.5q-67 0 -126 -24t-103.5 -67
t-70 -101t-25.5 -125t25.5 -126t70 -103.5t103.5 -70t126 -25.5q63 0 120 22t102 65v209h-217q-13 0 -21.5 8.5t-8.5 20.5t8.5 21t21.5 9h246q13 0 21.5 -9t8.5 -21v-251z" />
    <glyph glyph-name="H" unicode="H" horiz-adv-x="737" 
d="M639 29q0 -12 -9 -20.5t-21 -8.5t-20.5 8.5t-8.5 20.5v354h-423v-354q0 -12 -8.5 -20.5t-20.5 -8.5q-13 0 -21.5 8.5t-8.5 20.5v701q0 12 8.5 20.5t21.5 8.5q12 0 20.5 -8.5t8.5 -20.5v-288h423v288q0 12 8.5 20.5t20.5 8.5t21 -8.5t9 -20.5v-701z" />
    <glyph glyph-name="I" unicode="I" horiz-adv-x="255" 
d="M157 29q0 -12 -8.5 -20.5t-20.5 -8.5q-13 0 -21.5 8.5t-8.5 20.5v701q0 12 8.5 20.5t21.5 8.5q12 0 20.5 -8.5t8.5 -20.5v-701z" />
    <glyph glyph-name="J" unicode="J" horiz-adv-x="374" 
d="M275 116q0 -24 -9 -45t-25 -37t-37 -25t-45 -9t-45 9t-37 25t-25 37t-9 45q0 12 8.5 20.5t20.5 8.5q13 0 21.5 -8.5t8.5 -20.5q0 -24 17 -40.5t40 -16.5q24 0 41 16.5t17 40.5v614q0 12 8.5 20.5t20.5 8.5t20.5 -8.5t8.5 -20.5v-614z" />
    <glyph glyph-name="K" unicode="K" horiz-adv-x="621" 
d="M558 9q-8 -9 -21 -9q-10 0 -20 8l-361 346v-325q0 -12 -8.5 -20.5t-20.5 -8.5t-20.5 8.5t-8.5 20.5v701q0 12 8.5 20.5t20.5 8.5t20.5 -8.5t8.5 -20.5v-325l361 346q9 8 21 8t20 -9q9 -8 8.5 -20.5t-8.5 -20.5l-344 -329l344 -330q8 -8 8 -20t-8 -21z" />
    <glyph glyph-name="L" unicode="L" horiz-adv-x="434" 
d="M424 29q0 -12 -8.5 -20.5t-21.5 -8.5h-267q-12 0 -20.5 8.5t-8.5 20.5v701q0 12 8.5 20.5t20.5 8.5t20.5 -8.5t8.5 -20.5v-672h238q13 0 21.5 -8.5t8.5 -20.5z" />
    <glyph glyph-name="M" unicode="M" horiz-adv-x="946" 
d="M848 29q0 -12 -8.5 -20.5t-20.5 -8.5t-20.5 8.5t-8.5 20.5v586l-291 -599q-4 -7 -11 -11.5t-15 -4.5t-15 4.5t-11 11.5l-291 599v-586q0 -12 -8.5 -20.5t-20.5 -8.5t-20.5 8.5t-8.5 20.5v701q0 12 8.5 20.5t20.5 8.5q8 0 15.5 -4t10.5 -12l320 -648l320 648q8 16 26 16
q12 0 20.5 -8.5t8.5 -20.5v-701z" />
    <glyph glyph-name="N" unicode="N" horiz-adv-x="697" 
d="M599 29q0 -12 -8.5 -20.5t-20.5 -8.5q-17 0 -25 14l-389 615v-600q0 -12 -8.5 -20.5t-20.5 -8.5t-20.5 8.5t-8.5 20.5v701q0 12 8.5 20.5t20.5 8.5q17 0 25 -13l389 -616v600q0 12 8.5 20.5t20.5 8.5t20.5 -8.5t8.5 -20.5v-701z" />
    <glyph glyph-name="O" unicode="O" horiz-adv-x="912" 
d="M835 380q0 -79 -30 -148t-81.5 -120.5t-120.5 -81.5t-147 -30q-79 0 -148 30t-120.5 81.5t-81.5 120.5t-30 148q0 78 30 147t81.5 120.5t120.5 81.5t148 30q78 0 147 -30t120.5 -81.5t81.5 -120.5t30 -147zM777 380q0 66 -25.5 124.5t-69 102t-102 69t-124.5 25.5
t-125 -25.5t-102.5 -69t-69 -102t-25.5 -124.5q0 -67 25.5 -125.5t69 -102t102.5 -69t125 -25.5t124.5 25.5t102 69t69 102t25.5 125.5z" />
    <glyph glyph-name="P" unicode="P" horiz-adv-x="543" 
d="M511 553q0 -43 -16.5 -80.5t-44.5 -65.5t-65.5 -44t-80.5 -16h-147v-318q0 -12 -8.5 -20.5t-20.5 -8.5q-13 0 -21.5 8.5t-8.5 20.5v701q0 12 8.5 20.5t21.5 8.5h176q43 0 80.5 -16t65.5 -44t44.5 -65.5t16.5 -80.5zM452 553q0 30 -11.5 57t-31.5 47.5t-47 32t-58 11.5
h-147v-295h147q31 0 58 11.5t47 31.5t31.5 47t11.5 57z" />
    <glyph glyph-name="Q" unicode="Q" horiz-adv-x="918" 
d="M835 380q0 -70 -23 -132t-65 -111l87 -87q8 -8 8 -21q0 -12 -8.5 -20.5t-20.5 -8.5t-21 9l-86 86q-51 -45 -114.5 -70t-135.5 -25q-79 0 -148 30t-120.5 81.5t-81.5 120.5t-30 148q0 78 30 147t81.5 120.5t120.5 81.5t148 30q78 0 147 -30t120.5 -81.5t81.5 -120.5
t30 -147zM777 380q0 66 -25.5 124.5t-69 102t-102 69t-124.5 25.5t-125 -25.5t-102.5 -69t-69 -102t-25.5 -124.5q0 -67 25.5 -125.5t69 -102t102.5 -69t125 -25.5q60 0 113.5 20.5t95.5 57.5l-147 146q-8 10 -8 21q0 12 8.5 20.5t20.5 8.5q13 0 21 -8l146 -146q33 42 52 93
t19 109z" />
    <glyph glyph-name="R" unicode="R" horiz-adv-x="543" 
d="M511 553q0 -43 -16.5 -80.5t-44.5 -65.5t-65.5 -44t-80.5 -16h-12l181 -303q4 -5 4 -15q0 -12 -8.5 -20.5t-20.5 -8.5q-16 0 -26 15l-198 332h-67v-318q0 -12 -8.5 -20.5t-20.5 -8.5q-13 0 -21.5 8.5t-8.5 20.5v701q0 12 8.5 20.5t21.5 8.5h176q43 0 80.5 -16t65.5 -44
t44.5 -65.5t16.5 -80.5zM452 553q0 30 -11.5 57t-31.5 47.5t-47 32t-58 11.5h-147v-295h147q31 0 58 11.5t47 31.5t31.5 47t11.5 57z" />
    <glyph glyph-name="S" unicode="S" horiz-adv-x="565" 
d="M489 206q0 -42 -16.5 -79.5t-44.5 -65.5t-65.5 -44.5t-80.5 -16.5q-42 0 -79.5 16.5t-65.5 44.5t-44.5 65.5t-16.5 79.5q0 12 8.5 21t21.5 9q12 0 20.5 -9t8.5 -21q0 -30 11.5 -57t31.5 -47t47 -31.5t57 -11.5t57 11.5t47.5 31.5t32 47t11.5 57q0 49 -26 77.5t-65.5 47
t-85.5 33t-85.5 37t-65.5 57.5t-26 95q0 43 16.5 80.5t44.5 65.5t65.5 44t79.5 16q43 0 80.5 -16t65.5 -44t44.5 -65.5t16.5 -80.5q0 -12 -9 -20.5t-21 -8.5t-20.5 8.5t-8.5 20.5q0 30 -11.5 57t-32 47.5t-47.5 32t-57 11.5t-57 -11.5t-47 -32t-31.5 -47.5t-11.5 -57
q0 -47 26 -73t65.5 -44t85.5 -33t85.5 -38t65.5 -60t26 -99z" />
    <glyph glyph-name="T" unicode="T" horiz-adv-x="513" 
d="M492 730q0 -12 -8.5 -20.5t-20.5 -8.5h-177v-672q0 -12 -8.5 -20.5t-20.5 -8.5q-13 0 -21.5 8.5t-8.5 20.5v672h-177q-12 0 -20.5 8.5t-8.5 20.5t8.5 20.5t20.5 8.5h413q12 0 20.5 -8.5t8.5 -20.5z" />
    <glyph glyph-name="U" unicode="U" horiz-adv-x="775" 
d="M677 289q0 -60 -23 -112.5t-62 -91.5t-92 -62t-113 -23t-112.5 23t-91.5 62t-62 91.5t-23 112.5v441q0 12 8.5 20.5t21.5 8.5q12 0 20.5 -8.5t8.5 -20.5v-441q0 -48 18 -89.5t49.5 -73t73 -49.5t89.5 -18t90 18t73.5 49.5t49.5 73t18 89.5v441q0 12 8.5 20.5t20.5 8.5
t21 -8.5t9 -20.5v-441z" />
    <glyph glyph-name="V" unicode="V" horiz-adv-x="672" 
d="M651 737q0 -5 -2 -11l-286 -708q-7 -18 -27 -18t-27 18l-286 708q-2 6 -2 11q0 12 8.5 20.5t20.5 8.5q20 0 28 -18l258 -640l258 640q7 18 27 18q12 0 21 -8.5t9 -20.5z" />
    <glyph glyph-name="W" unicode="W" horiz-adv-x="1079" 
d="M1089 737q0 -3 -10.5 -32.5t-27.5 -77t-39 -108t-45.5 -124.5t-47 -126.5t-42.5 -114.5t-32.5 -88t-17.5 -47q-7 -19 -27 -19q-9 0 -16.5 5.5t-11.5 13.5l-232 633l-233 -633q-7 -19 -27 -19q-21 0 -28 19q-4 11 -17.5 47t-32.5 88t-42.5 114.5t-47 126.5t-45.5 124.5
t-39 108t-27.5 77t-10.5 32.5q0 12 8.5 20.5t20.5 8.5q21 0 28 -19l233 -633l232 633q3 8 11 13.5t17 5.5q20 0 27 -19l233 -633l232 633q4 8 11.5 13.5t16.5 5.5q12 0 20.5 -8.5t8.5 -20.5z" />
    <glyph glyph-name="X" unicode="X" horiz-adv-x="695" 
d="M674 29q0 -12 -8.5 -20.5t-20.5 -8.5q-14 0 -22 10l-275 327l-275 -327q-10 -10 -23 -10q-12 0 -20.5 8.5t-8.5 20.5t7 19l281 335l-281 335q-7 7 -7 19t8.5 20.5t20.5 8.5q13 0 23 -10l275 -327l275 327q8 10 22 10q12 0 20.5 -8.5t8.5 -20.5t-6 -19l-282 -335l282 -335
q6 -8 6 -19z" />
    <glyph glyph-name="Y" unicode="Y" horiz-adv-x="566" 
d="M545 730q0 -9 -4 -14l-229 -410v-277q0 -12 -8.5 -20.5t-20.5 -8.5t-20.5 8.5t-8.5 20.5v277l-229 410q-4 5 -4 14q0 12 8.5 20.5t20.5 8.5q18 0 26 -15l207 -370l207 370q8 15 26 15q12 0 20.5 -8.5t8.5 -20.5z" />
    <glyph glyph-name="Z" unicode="Z" horiz-adv-x="547" 
d="M515 29q0 -12 -8.5 -20.5t-20.5 -8.5h-425q-12 0 -20.5 8.5t-8.5 20.5q0 10 4 15l398 657h-373q-12 0 -20.5 8.5t-8.5 20.5t8.5 20.5t20.5 8.5h425q12 0 20.5 -8.5t8.5 -20.5q0 -10 -4 -15l-398 -656h373q12 0 20.5 -9t8.5 -21z" />
    <glyph glyph-name="bracketleft" unicode="[" horiz-adv-x="366" 
d="M311 -197q0 -12 -8.5 -20.5t-20.5 -8.5h-199q-12 0 -20.5 8.5t-8.5 20.5v927q0 12 8.5 20.5t20.5 8.5h199q12 0 20.5 -8.5t8.5 -20.5t-8.5 -20.5t-20.5 -8.5h-169v-868h169q12 0 20.5 -8.5t8.5 -21.5z" />
    <glyph glyph-name="backslash" unicode="\" horiz-adv-x="454" 
d="M442 -188q5 -11 -0.5 -22t-16.5 -16q-6 -2 -11 -2q-19 0 -27 18l-375 936q-5 11 0 22t16 16t22.5 0t16.5 -16z" />
    <glyph glyph-name="bracketright" unicode="]" horiz-adv-x="366" 
d="M311 -197q0 -12 -8.5 -20.5t-20.5 -8.5h-199q-12 0 -20.5 8.5t-8.5 20.5q0 13 8.5 21.5t20.5 8.5h170v868h-170q-12 0 -20.5 8.5t-8.5 20.5t8.5 20.5t20.5 8.5h199q12 0 20.5 -8.5t8.5 -20.5v-927z" />
    <glyph glyph-name="asciicircum" unicode="^" horiz-adv-x="527" 
d="M263 766q17 0 25 -13l213 -338q5 -8 5 -16q0 -16 -14 -25q-10 -6 -22 -3.5t-18 13.5l-189 298l-188 -298q-6 -11 -18 -13.5t-22 3.5q-11 7 -13.5 18.5t4.5 22.5l213 338q8 13 24 13z" />
    <glyph glyph-name="underscore" unicode="_" horiz-adv-x="473" 
d="M441 29q0 -12 -8.5 -20.5t-20.5 -8.5h-351q-12 0 -20.5 8.5t-8.5 20.5q0 13 8.5 21.5t20.5 8.5h351q12 0 20.5 -8.5t8.5 -21.5z" />
    <glyph glyph-name="grave" unicode="`" horiz-adv-x="212" 
d="M180 655q0 -12 -8.5 -20.5t-20.5 -8.5q-11 0 -21 8l-89 90q-9 9 -9 21t8.5 20.5t20.5 8.5q11 0 21 -8l90 -90q8 -10 8 -21z" />
    <glyph glyph-name="a" unicode="a" 
d="M539 29q0 -12 -8.5 -20.5t-20.5 -8.5q-13 0 -21.5 8.5t-8.5 20.5v56q-35 -41 -82.5 -63t-100.5 -22q-50 0 -94.5 19t-77.5 52t-52 77t-19 94t19 94.5t52 77.5t77.5 52t94.5 19q53 0 100.5 -22t82.5 -63v56q0 12 8.5 20.5t21.5 8.5q12 0 20.5 -8.5t8.5 -20.5v-427z
M480 242q0 38 -14.5 71.5t-39 58.5t-58 39.5t-71.5 14.5t-71.5 -14.5t-58.5 -39.5t-39.5 -58.5t-14.5 -71.5t14.5 -71.5t39.5 -58t58.5 -39t71.5 -14.5t71.5 14.5t58 39t39 58t14.5 71.5z" />
    <glyph glyph-name="b" unicode="b" 
d="M583 242q0 -50 -19 -94t-52 -77t-77 -52t-94 -19q-54 0 -101.5 22t-82.5 63v-56q0 -12 -8.5 -20.5t-20.5 -8.5q-13 0 -21.5 8.5t-8.5 20.5l-4 701q0 12 8.5 20.5t20.5 8.5t20.5 -8.5t8.5 -20.5l5 -330q35 41 82.5 63t101.5 22q50 0 94 -19t77 -52t52 -77.5t19 -94.5z
M524 242q0 38 -14.5 71.5t-39 58.5t-58 39.5t-71.5 14.5t-71.5 -14.5t-58.5 -39.5t-39.5 -58.5t-14.5 -71.5t14.5 -71.5t39.5 -58t58.5 -39t71.5 -14.5t71.5 14.5t58 39t39 58t14.5 71.5z" />
    <glyph glyph-name="c" unicode="c" horiz-adv-x="522" 
d="M477 393q0 -12 -9 -20.5t-21 -8.5q-7 0 -11.5 2t-9.5 6q-30 26 -59 40t-70 14q-38 0 -71.5 -14.5t-58.5 -39.5t-39.5 -58.5t-14.5 -71.5t14.5 -71.5t39.5 -58t58.5 -39t71.5 -14.5q41 0 70 14t59 40q5 4 9.5 6t11.5 2q12 0 21 -8.5t9 -20.5q0 -7 -2.5 -11.5t-6.5 -9.5
q-31 -35 -78.5 -53t-92.5 -18q-50 0 -94.5 19t-77.5 52t-52 77t-19 94t19 94.5t52 77.5t77.5 52t94.5 19q45 0 92.5 -18t78.5 -53q9 -11 9 -21z" />
    <glyph glyph-name="d" unicode="d" 
d="M539 29q0 -12 -8.5 -20.5t-20.5 -8.5t-21 8.5t-9 20.5v56q-35 -41 -82.5 -63t-100.5 -22q-50 0 -94.5 19t-77.5 52t-52 77t-19 94t19 94.5t52 77.5t77.5 52t94.5 19q53 0 100.5 -22t82.5 -63v330q0 12 9 20.5t21 8.5t20.5 -8.5t8.5 -20.5v-701zM480 242q0 38 -14.5 71.5
t-39 58.5t-58 39.5t-71.5 14.5t-71.5 -14.5t-58.5 -39.5t-39.5 -58.5t-14.5 -71.5t14.5 -71.5t39.5 -58t58.5 -39t71.5 -14.5t71.5 14.5t58 39t39 58t14.5 71.5z" />
    <glyph glyph-name="e" unicode="e" horiz-adv-x="592" 
d="M538 263q1 -12 -8 -20.5t-21 -8.5h-396q2 -37 17 -69t40 -55.5t57.5 -37t69.5 -13.5q21 0 38 3.5t32 10.5t29 17t30 23q5 4 9.5 6t11.5 2q12 0 21 -8.5t9 -20.5q0 -7 -2.5 -11.5t-6.5 -9.5q-14 -17 -34.5 -30t-43.5 -22t-47 -14t-46 -5q-50 0 -94.5 19t-77.5 52t-52 77
t-19 94t19 94.5t52 77.5t77.5 52t94.5 19q48 0 90.5 -16t75.5 -45.5t53 -69.5t22 -88v-3zM473 293q-8 30 -25 54.5t-40.5 42t-51.5 27t-59 9.5t-59.5 -10t-51.5 -27.5t-40.5 -42t-25.5 -53.5h353z" />
    <glyph glyph-name="f" unicode="f" horiz-adv-x="384" 
d="M368 456q0 -13 -8.5 -21.5t-20.5 -8.5h-144v-397q0 -12 -8.5 -20.5t-20.5 -8.5q-13 0 -21.5 8.5t-8.5 20.5v397h-75q-12 0 -20.5 8.5t-8.5 21.5q0 12 8.5 20.5t20.5 8.5h75v158q0 24 9 45t25 37t37 25t45 9t45 -9t37 -25t25 -37t9 -45q0 -12 -8.5 -20.5t-20.5 -8.5
t-20.5 8.5t-8.5 20.5q0 24 -17 41t-41 17q-23 0 -40 -17t-17 -41v-158h144q12 0 20.5 -8.5t8.5 -20.5z" />
    <glyph glyph-name="g" unicode="g" 
d="M539 28q0 -50 -19 -94.5t-52 -77.5t-77 -52t-94 -19q-63 0 -120 32t-89 86q-4 10 -4 15q0 12 9 21t21 9q9 0 14.5 -4t10.5 -11t9.5 -13.5t10.5 -13.5q26 -30 62.5 -46t75.5 -16q38 0 71.5 14.5t58 39.5t39 58.5t14.5 71.5v57q-35 -41 -82.5 -63t-100.5 -22
q-50 0 -94.5 19t-77.5 52t-52 77.5t-19 94.5t19 94t52 77t77.5 52t94.5 19q53 0 100.5 -22t82.5 -63v56q0 12 9 20.5t21 8.5t20.5 -8.5t8.5 -20.5v-428zM480 243q0 38 -14.5 71.5t-39 58t-58 39t-71.5 14.5t-71.5 -14.5t-58.5 -39t-39.5 -58t-14.5 -71.5t14.5 -71.5
t39.5 -58.5t58.5 -39.5t71.5 -14.5t71.5 14.5t58 39.5t39 58.5t14.5 71.5z" />
    <glyph glyph-name="h" unicode="h" horiz-adv-x="563" 
d="M487 29q0 -12 -8.5 -20.5t-20.5 -8.5t-21 8.5t-9 20.5v262q0 28 -10.5 52.5t-29 43t-43 29t-52.5 10.5t-52.5 -10.5t-42.5 -29t-28.5 -43t-10.5 -52.5q0 -2 -1 -4.5t-1 -4.5v-253q0 -12 -8.5 -20.5t-20.5 -8.5t-21 8.5t-9 20.5v701q0 12 9 20.5t21 8.5t20.5 -8.5
t8.5 -20.5v-302q27 27 62.5 42t73.5 15q40 0 75.5 -15.5t61.5 -41.5t41.5 -61.5t15.5 -75.5v-262z" />
    <glyph glyph-name="i" unicode="i" horiz-adv-x="284" 
d="M186 627q0 -18 -13 -31t-31 -13t-31 13t-13 31q0 19 13 31t31 12q19 0 31.5 -12t12.5 -31zM172 29q0 -12 -9 -20.5t-21 -8.5t-20.5 8.5t-8.5 20.5v427q0 12 8.5 20.5t20.5 8.5t21 -8.5t9 -20.5v-427z" />
    <glyph glyph-name="j" unicode="j" horiz-adv-x="267" 
d="M154 -98q0 -24 -9.5 -45t-25 -37t-36.5 -25t-45 -9t-45 9t-37 25t-25 37t-9 45q0 12 8.5 20.5t20.5 8.5t20.5 -8.5t8.5 -20.5q0 -23 17.5 -40t40.5 -17t40 17t17 40v554q0 12 8.5 20.5t20.5 8.5t21 -8.5t9 -20.5v-554zM170 627q0 -18 -13 -31t-31 -13t-31 13t-13 31
q0 19 12.5 31t31.5 12q18 0 31 -12t13 -31z" />
    <glyph glyph-name="k" unicode="k" horiz-adv-x="457" 
d="M425 458q0 -12 -9 -21l-202 -193l202 -194q9 -8 9 -21q0 -12 -8.5 -20.5t-20.5 -8.5t-20 8l-220 210v-189q0 -12 -8.5 -20.5t-20.5 -8.5t-20.5 8.5t-8.5 20.5v701q0 12 8.5 20.5t20.5 8.5t20.5 -8.5t8.5 -20.5v-461l220 210q8 8 20 8t20.5 -8.5t8.5 -20.5z" />
    <glyph glyph-name="l" unicode="l" horiz-adv-x="255" 
d="M156 29q0 -12 -8.5 -20.5t-20.5 -8.5t-20.5 8.5t-8.5 20.5v701q0 12 8.5 20.5t20.5 8.5t20.5 -8.5t8.5 -20.5v-701z" />
    <glyph glyph-name="m" unicode="m" horiz-adv-x="802" 
d="M725 29q0 -12 -8.5 -20.5t-20.5 -8.5t-20.5 8.5t-8.5 20.5v285q0 23 -9 43.5t-24.5 35.5t-36 24t-43.5 9t-43.5 -9t-35.5 -24t-24 -35.5t-9 -43.5v-285q0 -12 -8.5 -20.5t-20.5 -8.5t-21 8.5t-9 20.5v285q0 23 -9 43.5t-24 35.5t-35.5 24t-43.5 9t-43.5 -9t-35.5 -24
t-24 -35.5t-9 -43.5q0 -2 -1 -4.5t-1 -5.5v-275q0 -12 -8.5 -20.5t-20.5 -8.5q-13 0 -21.5 8.5t-8.5 20.5v433q0 13 8.5 21.5t21.5 8.5q11 0 17 -5t8.5 -12.5t3 -16.5t0.5 -17q23 21 52.5 32.5t61.5 11.5q43 0 80.5 -20t61.5 -55q23 35 61 55t80 20q35 0 66 -13.5t54.5 -37
t37 -54.5t13.5 -66v-285z" />
    <glyph glyph-name="n" unicode="n" horiz-adv-x="518" 
d="M442 29q0 -12 -8.5 -20.5t-20.5 -8.5t-21 8.5t-9 20.5v285q0 23 -9 43.5t-24 35.5t-35.5 24t-43.5 9t-43.5 -9t-35.5 -24t-24 -35.5t-9 -43.5q0 -2 -1 -4.5t-1 -5.5v-275q0 -12 -8.5 -20.5t-20.5 -8.5q-13 0 -21.5 8.5t-8.5 20.5v433q0 13 8.5 21.5t21.5 8.5q11 0 17 -5
t8.5 -12.5t3 -16.5t0.5 -17q23 21 52.5 32.5t61.5 11.5q35 0 66 -13.5t54.5 -37t37 -54.5t13.5 -66v-285z" />
    <glyph glyph-name="o" unicode="o" horiz-adv-x="593" 
d="M54 242q0 50 19 94.5t52 77.5t77.5 52t94.5 19t94 -19t77 -52t52 -77.5t19 -94.5t-19 -94t-52 -77t-77 -52t-94 -19t-94.5 19t-77.5 52t-52 77t-19 94zM113 242q0 -38 14.5 -71.5t39.5 -58t58.5 -39t71.5 -14.5t71.5 14.5t58 39t39 58t14.5 71.5t-14.5 71.5t-39 58.5
t-58 39.5t-71.5 14.5t-71.5 -14.5t-58.5 -39.5t-39.5 -58.5t-14.5 -71.5z" />
    <glyph glyph-name="p" unicode="p" 
d="M583 243q0 -50 -19 -94.5t-52 -77.5t-77 -52t-94 -19q-54 0 -101.5 22t-82.5 63v-280q0 -12 -8.5 -21t-20.5 -9q-13 0 -21.5 9t-8.5 21v651q0 12 9 20.5t21 8.5t20.5 -8.5t8.5 -20.5v-56q35 41 82.5 63t101.5 22q50 0 94 -19t77 -52t52 -77t19 -94zM524 243
q0 38 -14.5 71.5t-39 58t-58 39t-71.5 14.5t-71.5 -14.5t-58.5 -39t-39.5 -58t-14.5 -71.5t14.5 -71.5t39.5 -58.5t58.5 -39.5t71.5 -14.5t71.5 14.5t58 39.5t39 58.5t14.5 71.5z" />
    <glyph glyph-name="q" unicode="q" 
d="M539 -195q0 -12 -8.5 -21t-20.5 -9q-13 0 -21.5 9t-8.5 21v280q-35 -41 -82.5 -63t-100.5 -22q-50 0 -94.5 19t-77.5 52t-52 77.5t-19 94.5t19 94t52 77t77.5 52t94.5 19q53 0 100.5 -22t82.5 -63v56q0 12 8.5 20.5t21.5 8.5q12 0 20.5 -8.5t8.5 -20.5v-651zM480 243
q0 38 -14.5 71.5t-39 58t-58 39t-71.5 14.5t-71.5 -14.5t-58.5 -39t-39.5 -58t-14.5 -71.5t14.5 -71.5t39.5 -58.5t58.5 -39.5t71.5 -14.5t71.5 14.5t58 39.5t39 58.5t14.5 71.5z" />
    <glyph glyph-name="r" unicode="r" horiz-adv-x="391" 
d="M157 29q0 -9 -7 -18q-8 -11 -22 -11q-13 0 -21.5 8.5t-8.5 20.5v427q0 12 8.5 20.5t21.5 8.5q12 0 20.5 -8.5t8.5 -20.5v-25q11 23 36 38.5t51 15.5q45 0 72.5 -21t42.5 -62q5 -14 -2.5 -27.5t-24.5 -13.5q-15 0 -22.5 11t-15 24t-20 23t-37.5 8q-16 -1 -30.5 -9
t-25.5 -20.5t-17.5 -27.5t-6.5 -31v-310z" />
    <glyph glyph-name="s" unicode="s" horiz-adv-x="412" 
d="M357 136q0 -32 -11.5 -57.5t-31 -43t-46 -26.5t-57.5 -9q-29 0 -56.5 9.5t-50 26.5t-36 42t-13.5 56q0 12 8.5 20.5t20.5 8.5t21 -8.5t9 -20.5q0 -20 9 -34t23 -23t31 -13.5t34 -4.5q38 0 62.5 17.5t24.5 59.5q0 32 -17.5 49.5t-43 28.5t-56 19.5t-56 22t-43 37
t-17.5 63.5q0 28 11 52t29.5 41t43 26.5t52.5 9.5q27 0 52 -9.5t43.5 -26.5t29.5 -41t11 -52q0 -12 -9 -20.5t-21 -8.5t-20.5 8.5t-8.5 20.5q0 32 -23 51t-54 19t-54 -19t-23 -51q0 -24 17.5 -37.5t43 -24t56 -20.5t56 -26.5t43 -43t17.5 -68.5z" />
    <glyph glyph-name="t" unicode="t" horiz-adv-x="381" 
d="M346 455q0 -12 -9 -20.5t-21 -8.5h-96v-397q0 -12 -9 -20.5t-21 -8.5t-20.5 8.5t-8.5 20.5v397h-97q-12 0 -20.5 8.5t-8.5 20.5q0 13 8.5 21.5t20.5 8.5h97v162q0 12 8.5 20.5t20.5 8.5t21 -8.5t9 -20.5v-162h96q12 0 21 -8.5t9 -21.5z" />
    <glyph glyph-name="u" unicode="u" horiz-adv-x="520" 
d="M443 186q0 -38 -14.5 -71.5t-39 -58.5t-58 -39.5t-71.5 -14.5t-71.5 14.5t-58.5 39.5t-39.5 58.5t-14.5 71.5v265q0 12 8.5 21t21.5 9q12 0 20.5 -9t8.5 -21v-265q0 -26 10 -48.5t27 -39.5t39.5 -27t48.5 -10t48.5 10t39.5 27t27 39.5t10 48.5v265q0 12 8.5 21t20.5 9
t20.5 -9t8.5 -21v-265z" />
    <glyph glyph-name="v" unicode="v" horiz-adv-x="457" 
d="M425 456q0 -5 -2 -11l-167 -427q-8 -18 -28 -18q-8 0 -16 5t-11 13l-167 427q-2 6 -2 11q0 12 8.5 20.5t20.5 8.5q9 0 17 -5t11 -13l139 -377l140 377q7 18 27 18q12 0 21 -8.5t9 -20.5z" />
    <glyph glyph-name="w" unicode="w" horiz-adv-x="801" 
d="M769 456q0 -7 -3 -11l-169 -427q-7 -18 -27 -18t-27 18l-143 359l-142 -359q-7 -18 -27 -18t-27 18l-170 427q-2 6 -2 11q0 12 8.5 20.5t20.5 8.5q20 0 28 -18l142 -377l142 377q7 18 27 18t28 -18l142 -377l142 377q7 18 27 18q12 0 21 -8.5t9 -20.5z" />
    <glyph glyph-name="x" unicode="x" horiz-adv-x="470" 
d="M438 29q0 -12 -8.5 -20.5t-20.5 -8.5q-13 0 -23 10l-151 203l-151 -203q-8 -10 -23 -10q-12 0 -20.5 8.5t-8.5 20.5q0 10 7 19l158 201l-158 188q-7 9 -7 19q0 12 8.5 20.5t20.5 8.5q15 0 23 -10l151 -190l151 190q10 10 23 10q12 0 20.5 -8.5t8.5 -20.5t-7 -19
l-157 -188l157 -201q7 -7 7 -19z" />
    <glyph glyph-name="y" unicode="y" horiz-adv-x="457" 
d="M425 456q0 -5 -2 -11l-167 -414l-87 -213q-8 -18 -28 -18q-12 0 -20.5 8.5t-8.5 20.5q0 5 2 11l83 202l-163 403q-2 6 -2 11q0 12 8.5 20.5t20.5 8.5q20 0 28 -18l139 -357l140 357q3 8 11 13t16 5q12 0 21 -8.5t9 -20.5z" />
    <glyph glyph-name="z" unicode="z" horiz-adv-x="492" 
d="M460 29q0 -12 -9 -20.5t-21 -8.5h-369q-12 0 -20.5 8.5t-8.5 20.5q0 9 7 20l327 377h-305q-12 0 -20.5 8.5t-8.5 20.5q0 13 8.5 21.5t20.5 8.5h369q12 0 21 -8.5t9 -20.5q0 -10 -8 -20l-326 -377h304q12 0 21 -9t9 -21z" />
    <glyph glyph-name="braceleft" unicode="{" horiz-adv-x="375" 
d="M321 -197q0 -12 -8.5 -20.5t-20.5 -8.5h-37q-35 0 -66 16t-51 45t-24 63.5t8 66.5l18 49q9 25 9 51.5t-8.5 50.5t-24.5 45t-38 35l-32 20q-14 9 -14 25q0 17 14 25l37 24q45 28 63 76.5t2 98.5l-36 115q-11 33 -5.5 66t25.5 61t50 43t65 15h45q12 0 20.5 -8.5t8.5 -21.5
q0 -12 -8.5 -20.5t-20.5 -8.5h-45q-42 0 -67 -34q-12 -17 -15.5 -36t3.5 -38l36 -115q11 -34 10 -69t-12.5 -67t-33.5 -59.5t-52 -46.5q30 -20 50.5 -48.5t31 -61.5t10 -68t-12.5 -69l-18 -49q-8 -20 -5 -40t15 -37q24 -35 68 -35h37q12 0 20.5 -8.5t8.5 -21.5z" />
    <glyph glyph-name="bar" unicode="|" horiz-adv-x="255" 
d="M156 -197q0 -12 -8.5 -20.5t-20.5 -8.5t-20.5 8.5t-8.5 20.5v927q0 12 8.5 20.5t20.5 8.5t20.5 -8.5t8.5 -20.5v-927z" />
    <glyph glyph-name="braceright" unicode="}" horiz-adv-x="375" 
d="M343 241q0 -15 -13 -25l-32 -20q-46 -29 -63.5 -80t1.5 -102l18 -49q12 -32 7.5 -66.5t-24.5 -63.5t-51 -45t-66 -16h-37q-12 0 -20.5 8.5t-8.5 20.5q0 13 8.5 21.5t20.5 8.5h37q44 0 69 35q12 17 14.5 37t-4.5 40l-18 49q-13 34 -13.5 69t10 68t31 61.5t50.5 48.5
q-30 19 -51.5 46.5t-33 59.5t-12.5 67t10 69l36 115q6 19 2.5 38t-14.5 36q-25 34 -68 34h-45q-12 0 -20.5 8.5t-8.5 20.5q0 13 8.5 21.5t20.5 8.5h45q35 0 65 -15t50 -43t26 -61t-5 -66l-36 -115q-16 -50 1.5 -98.5t62.5 -76.5l38 -24q13 -8 13 -25z" />
    <glyph glyph-name="asciitilde" unicode="~" horiz-adv-x="556" 
d="M343 623q-21 0 -36.5 8.5t-29 19t-26.5 19.5t-29 9q-14 0 -20.5 -8.5t-12 -18.5t-11 -18.5t-17.5 -8.5q-9 0 -18.5 6.5t-9.5 17.5q0 6 3 14q12 28 30.5 48t51.5 20q22 0 39 -9t31.5 -19.5t27 -19t24.5 -8.5q13 0 19 7t10.5 16t9.5 16t15 7t19.5 -6.5t9.5 -17.5
q0 -5 -1 -8t-3 -7q-12 -25 -28.5 -42t-47.5 -17z" />
    <glyph glyph-name="Adieresis" unicode="&#xc4;" horiz-adv-x="725" 
d="M703 41q5 -11 0 -22.5t-16 -16.5q-3 -1 -5.5 -1.5t-5.5 -0.5q-20 0 -27 18l-83 195h-382l-84 -195q-5 -11 -16 -16t-22 0t-16 16.5t0 22.5l91 213l211 494q7 18 27 18q19 0 27 -18l210 -494zM541 272l-166 390l-166 -390h332zM502 858q0 -18 -13 -31t-31 -13t-31 13
t-13 31q0 19 12.5 31.5t31.5 12.5t31.5 -12.5t12.5 -31.5zM332 858q0 -18 -13 -31t-31 -13t-31 13t-13 31q0 19 12.5 31.5t31.5 12.5t31.5 -12.5t12.5 -31.5z" />
    <glyph glyph-name="Aring" unicode="&#xc5;" horiz-adv-x="725" 
d="M703 41q5 -11 0 -22.5t-16 -16.5q-3 -1 -5.5 -1.5t-5.5 -0.5q-20 0 -27 18l-83 195h-382l-84 -195q-5 -11 -16 -16t-22 0t-16 16.5t0 22.5l91 213l211 494q7 18 27 18q19 0 27 -18l210 -494zM541 272l-166 390l-166 -390h332zM472 822q0 -20 -7.5 -38t-21 -31.5
t-31.5 -21.5t-39 -8t-39 8t-31.5 21.5t-21.5 31.5t-8 38q0 42 29 71t71 29t70.5 -29t28.5 -71zM429 822q0 24 -16.5 40.5t-39.5 16.5q-24 0 -40.5 -16.5t-16.5 -40.5q0 -23 16.5 -39.5t40.5 -16.5q23 0 39.5 16.5t16.5 39.5z" />
    <glyph glyph-name="Ccedilla" unicode="&#xc7;" horiz-adv-x="816" 
d="M748 112q-55 -54 -124.5 -83t-146.5 -29q-80 0 -149.5 30t-122 82.5t-82.5 122t-30 149.5q0 79 30 147.5t82.5 119t122 79.5t149.5 29q77 0 146.5 -29t124.5 -83q8 -8 8 -20.5t-8 -20.5q-9 -9 -21 -9t-21 9q-46 46 -105 70.5t-124 24.5q-68 0 -127 -24.5t-103 -67
t-69.5 -100.5t-25.5 -125q0 -68 25.5 -127t69.5 -103t103 -69.5t127 -25.5q65 0 124 24t105 71q9 8 21 8t21 -8q8 -9 8 -21t-8 -21zM558 -82q0 -26 -10.5 -40.5t-27 -21.5t-36.5 -8.5t-40 -1.5q-14 0 -24 4t-10 21t13 20.5t26 3.5q9 0 18 -0.5t18 -0.5t20.5 2.5t11.5 15.5
q0 11 -10.5 13t-18.5 2q-9 0 -17.5 -1.5t-17.5 -1.5q-25 0 -25 23q0 7 3.5 18.5t9 23.5t10.5 23t8 18q2 9 9 14.5t16 5.5q11 0 18 -7t7 -18q0 -4 -2.5 -11t-5.5 -14l-6 -14t-5 -11q28 -2 48 -14t20 -43z" />
    <glyph glyph-name="Eacute" unicode="&#xc9;" horiz-adv-x="556" 
d="M521 29q0 -12 -8.5 -20.5t-21.5 -8.5h-344q-13 0 -21.5 8.5t-8.5 20.5v2v2v697q0 12 8.5 20.5t21.5 8.5h344q13 0 21.5 -8.5t8.5 -20.5t-8.5 -20.5t-21.5 -8.5h-315v-285h268q12 0 20.5 -8.5t8.5 -20.5t-8.5 -20.5t-20.5 -8.5h-268v-299h315q13 0 21.5 -8.5t8.5 -21.5z
M277.983 829q0 -12 8.49902 -20.5q8.5 -8.5 20.499 -8.5q10.999 0 20.999 8l88.9941 90q8.99902 9 8.99902 21t-8.49902 20.5q-8.5 8.5 -20.499 8.5q-10.999 0 -20.999 -8l-89.9941 -90q-7.99902 -10 -7.99902 -21z" />
    <glyph glyph-name="Ntilde" unicode="&#xd1;" horiz-adv-x="697" 
d="M618 29q0 -12 -8.5 -20.5t-20.5 -8.5q-17 0 -25 14l-389 615v-600q0 -12 -8.5 -20.5t-20.5 -8.5t-20.5 8.5t-8.5 20.5v701q0 12 8.5 20.5t20.5 8.5q17 0 25 -13l389 -616v600q0 12 8.5 20.5t20.5 8.5t20.5 -8.5t8.5 -20.5v-701zM454 795q-21 0 -36.5 8.5t-29 19
t-26.5 19.5t-29 9q-14 0 -20.5 -8.5t-12 -18.5t-11 -18.5t-17.5 -8.5q-9 0 -18.5 6.5t-9.5 17.5q0 6 3 14q12 28 30.5 48t51.5 20q22 0 39 -9t31.5 -19.5t27 -19t24.5 -8.5q13 0 19 7t10.5 16t9.5 16t15 7t19.5 -6.5t9.5 -17.5q0 -5 -1 -8t-3 -7q-12 -25 -28.5 -42
t-47.5 -17z" />
    <glyph glyph-name="Odieresis" unicode="&#xd6;" horiz-adv-x="912" 
d="M852 380q0 -79 -30 -148t-81.5 -120.5t-120.5 -81.5t-147 -30q-79 0 -148 30t-120.5 81.5t-81.5 120.5t-30 148q0 78 30 147t81.5 120.5t120.5 81.5t148 30q78 0 147 -30t120.5 -81.5t81.5 -120.5t30 -147zM794 380q0 66 -25.5 124.5t-69 102t-102 69t-124.5 25.5
t-125 -25.5t-102.5 -69t-69 -102t-25.5 -124.5q0 -67 25.5 -125.5t69 -102t102.5 -69t125 -25.5t124.5 25.5t102 69t69 102t25.5 125.5zM595 858q0 -18 -13 -31t-31 -13t-31 13t-13 31q0 19 12.5 31.5t31.5 12.5t31.5 -12.5t12.5 -31.5zM425 858q0 -18 -13 -31t-31 -13
t-31 13t-13 31q0 19 12.5 31.5t31.5 12.5t31.5 -12.5t12.5 -31.5z" />
    <glyph glyph-name="Udieresis" unicode="&#xdc;" horiz-adv-x="775" 
d="M696 289q0 -60 -23 -112.5t-62 -91.5t-92 -62t-113 -23t-112.5 23t-91.5 62t-62 91.5t-23 112.5v441q0 12 8.5 20.5t21.5 8.5q12 0 20.5 -8.5t8.5 -20.5v-441q0 -48 18 -89.5t49.5 -73t73 -49.5t89.5 -18t90 18t73.5 49.5t49.5 73t18 89.5v441q0 12 8.5 20.5t20.5 8.5
t21 -8.5t9 -20.5v-441zM526 858q0 -18 -13 -31t-31 -13t-31 13t-13 31q0 19 12.5 31.5t31.5 12.5t31.5 -12.5t12.5 -31.5zM356 858q0 -18 -13 -31t-31 -13t-31 13t-13 31q0 19 12.5 31.5t31.5 12.5t31.5 -12.5t12.5 -31.5z" />
    <glyph glyph-name="aacute" unicode="&#xe1;" 
d="M553 29q0 -12 -8.5 -20.5t-20.5 -8.5q-13 0 -21.5 8.5t-8.5 20.5v56q-35 -41 -82.5 -63t-100.5 -22q-50 0 -94.5 19t-77.5 52t-52 77t-19 94t19 94.5t52 77.5t77.5 52t94.5 19q53 0 100.5 -22t82.5 -63v56q0 12 8.5 20.5t21.5 8.5q12 0 20.5 -8.5t8.5 -20.5v-427z
M494 242q0 38 -14.5 71.5t-39 58.5t-58 39.5t-71.5 14.5t-71.5 -14.5t-58.5 -39.5t-39.5 -58.5t-14.5 -71.5t14.5 -71.5t39.5 -58t58.5 -39t71.5 -14.5t71.5 14.5t58 39t39 58t14.5 71.5zM253.984 602q0 -12 8.5 -20.5q8.49902 -8.5 20.498 -8.5q11 0 20.999 8l88.9941 90
q9 9 9 21t-8.5 20.5q-8.49902 8.5 -20.498 8.5q-11 0 -20.999 -8l-89.9941 -90q-8 -10 -8 -21z" />
    <glyph glyph-name="agrave" unicode="&#xe0;" 
d="M553 29q0 -12 -8.5 -20.5t-20.5 -8.5q-13 0 -21.5 8.5t-8.5 20.5v56q-35 -41 -82.5 -63t-100.5 -22q-50 0 -94.5 19t-77.5 52t-52 77t-19 94t19 94.5t52 77.5t77.5 52t94.5 19q53 0 100.5 -22t82.5 -63v56q0 12 8.5 20.5t21.5 8.5q12 0 20.5 -8.5t8.5 -20.5v-427z
M494 242q0 38 -14.5 71.5t-39 58.5t-58 39.5t-71.5 14.5t-71.5 -14.5t-58.5 -39.5t-39.5 -58.5t-14.5 -71.5t14.5 -71.5t39.5 -58t58.5 -39t71.5 -14.5t71.5 14.5t58 39t39 58t14.5 71.5zM335 602q0 -12 -8.5 -20.5t-20.5 -8.5q-11 0 -21 8l-89 90q-9 9 -9 21t8.5 20.5
t20.5 8.5q11 0 21 -8l90 -90q8 -10 8 -21z" />
    <glyph glyph-name="acircumflex" unicode="&#xe2;" 
d="M553 29q0 -12 -8.5 -20.5t-20.5 -8.5q-13 0 -21.5 8.5t-8.5 20.5v56q-35 -41 -82.5 -63t-100.5 -22q-50 0 -94.5 19t-77.5 52t-52 77t-19 94t19 94.5t52 77.5t77.5 52t94.5 19q53 0 100.5 -22t82.5 -63v56q0 12 8.5 20.5t21.5 8.5q12 0 20.5 -8.5t8.5 -20.5v-427z
M494 242q0 38 -14.5 71.5t-39 58.5t-58 39.5t-71.5 14.5t-71.5 -14.5t-58.5 -39.5t-39.5 -58.5t-14.5 -71.5t14.5 -71.5t39.5 -58t58.5 -39t71.5 -14.5t71.5 14.5t58 39t39 58t14.5 71.5zM427 582q0 -11 -7 -18.5t-18 -7.5q-9 0 -18 7l-76 79l-76 -79q-9 -7 -18 -7
q-11 0 -18 7.5t-7 18.5q0 9 7 18l94 97q9 7 18 7t18 -7l94 -97q7 -9 7 -18z" />
    <glyph glyph-name="adieresis" unicode="&#xe4;" 
d="M553 29q0 -12 -8.5 -20.5t-20.5 -8.5q-13 0 -21.5 8.5t-8.5 20.5v56q-35 -41 -82.5 -63t-100.5 -22q-50 0 -94.5 19t-77.5 52t-52 77t-19 94t19 94.5t52 77.5t77.5 52t94.5 19q53 0 100.5 -22t82.5 -63v56q0 12 8.5 20.5t21.5 8.5q12 0 20.5 -8.5t8.5 -20.5v-427z
M494 242q0 38 -14.5 71.5t-39 58.5t-58 39.5t-71.5 14.5t-71.5 -14.5t-58.5 -39.5t-39.5 -58.5t-14.5 -71.5t14.5 -71.5t39.5 -58t58.5 -39t71.5 -14.5t71.5 14.5t58 39t39 58t14.5 71.5zM440 627q0 -18 -13 -31t-31 -13t-31 13t-13 31q0 19 12.5 31.5t31.5 12.5t31.5 -12.5
t12.5 -31.5zM270 627q0 -18 -13 -31t-31 -13t-31 13t-13 31q0 19 12.5 31.5t31.5 12.5t31.5 -12.5t12.5 -31.5z" />
    <glyph glyph-name="atilde" unicode="&#xe3;" 
d="M539 29q0 -12 -8.5 -20.5t-20.5 -8.5q-13 0 -21.5 8.5t-8.5 20.5v56q-35 -41 -82.5 -63t-100.5 -22q-50 0 -94.5 19t-77.5 52t-52 77t-19 94t19 94.5t52 77.5t77.5 52t94.5 19q53 0 100.5 -22t82.5 -63v56q0 12 8.5 20.5t21.5 8.5q12 0 20.5 -8.5t8.5 -20.5v-427z
M480 242q0 38 -14.5 71.5t-39 58.5t-58 39.5t-71.5 14.5t-71.5 -14.5t-58.5 -39.5t-39.5 -58.5t-14.5 -71.5t14.5 -71.5t39.5 -58t58.5 -39t71.5 -14.5t71.5 14.5t58 39t39 58t14.5 71.5zM379 600q-21 0 -36.5 8.5t-29 19t-26.5 19.5t-29 9q-14 0 -20.5 -8.5t-12 -18.5
t-11 -18.5t-17.5 -8.5q-9 0 -18.5 6.5t-9.5 17.5q0 6 3 14q12 28 30.5 48t51.5 20q22 0 39 -9t31.5 -19.5t27 -19t24.5 -8.5q13 0 19 7t10.5 16t9.5 16t15 7t19.5 -6.5t9.5 -17.5q0 -5 -1 -8t-3 -7q-12 -25 -28.5 -42t-47.5 -17z" />
    <glyph glyph-name="aring" unicode="&#xe5;" 
d="M553 29q0 -12 -8.5 -20.5t-20.5 -8.5q-13 0 -21.5 8.5t-8.5 20.5v56q-35 -41 -82.5 -63t-100.5 -22q-50 0 -94.5 19t-77.5 52t-52 77t-19 94t19 94.5t52 77.5t77.5 52t94.5 19q53 0 100.5 -22t82.5 -63v56q0 12 8.5 20.5t21.5 8.5q12 0 20.5 -8.5t8.5 -20.5v-427z
M494 242q0 38 -14.5 71.5t-39 58.5t-58 39.5t-71.5 14.5t-71.5 -14.5t-58.5 -39.5t-39.5 -58.5t-14.5 -71.5t14.5 -71.5t39.5 -58t58.5 -39t71.5 -14.5t71.5 14.5t58 39t39 58t14.5 71.5zM406 630q0 -20 -7.5 -38t-21 -31.5t-31.5 -21.5t-39 -8t-39 8t-31.5 21.5t-21.5 31.5
t-8 38q0 42 29 71t71 29t70.5 -29t28.5 -71zM363 630q0 24 -16.5 40.5t-39.5 16.5q-24 0 -40.5 -16.5t-16.5 -40.5q0 -23 16.5 -39.5t40.5 -16.5q23 0 39.5 16.5t16.5 39.5z" />
    <glyph glyph-name="ccedilla" unicode="&#xe7;" horiz-adv-x="509" 
d="M491 393q0 -12 -9 -20.5t-21 -8.5q-7 0 -11.5 2t-9.5 6q-30 26 -59 40t-70 14q-38 0 -71.5 -14.5t-58.5 -39.5t-39.5 -58.5t-14.5 -71.5t14.5 -71.5t39.5 -58t58.5 -39t71.5 -14.5q41 0 70 14t59 40q5 4 9.5 6t11.5 2q12 0 21 -8.5t9 -20.5q0 -7 -2.5 -11.5t-6.5 -9.5
q-31 -35 -78.5 -53t-92.5 -18q-50 0 -94.5 19t-77.5 52t-52 77t-19 94t19 94.5t52 77.5t77.5 52t94.5 19q45 0 92.5 -18t78.5 -53q9 -11 9 -21zM390 -82q0 -26 -10.5 -40.5t-27 -21.5t-36.5 -8.5t-40 -1.5q-14 0 -24 4t-10 21t13 20.5t26 3.5q9 0 18 -0.5t18 -0.5t20.5 2.5
t11.5 15.5q0 11 -10.5 13t-18.5 2q-9 0 -17.5 -1.5t-17.5 -1.5q-25 0 -25 23q0 7 3.5 18.5t9 23.5t10.5 23t8 18q2 9 9 14.5t16 5.5q11 0 18 -7t7 -18q0 -4 -2.5 -11t-5.5 -14l-6 -14t-5 -11q28 -2 48 -14t20 -43z" />
    <glyph glyph-name="eacute" unicode="&#xe9;" horiz-adv-x="592" 
d="M552 263q1 -12 -8 -20.5t-21 -8.5h-396q2 -37 17 -69t40 -55.5t57.5 -37t69.5 -13.5q21 0 38 3.5t32 10.5t29 17t30 23q5 4 9.5 6t11.5 2q12 0 21 -8.5t9 -20.5q0 -7 -2.5 -11.5t-6.5 -9.5q-14 -17 -34.5 -30t-43.5 -22t-47 -14t-46 -5q-50 0 -94.5 19t-77.5 52t-52 77
t-19 94t19 94.5t52 77.5t77.5 52t94.5 19q48 0 90.5 -16t75.5 -45.5t53 -69.5t22 -88v-3zM487 293q-8 30 -25 54.5t-40.5 42t-51.5 27t-59 9.5t-59.5 -10t-51.5 -27.5t-40.5 -42t-25.5 -53.5h353zM249.984 602q0 -12 8.5 -20.5q8.49902 -8.5 20.499 -8.5q10.999 0 20.998 8
l88.9951 90q8.99902 9 8.99902 21t-8.49902 20.5q-8.5 8.5 -20.499 8.5q-10.999 0 -20.999 -8l-89.9941 -90q-8 -10 -8 -21z" />
    <glyph glyph-name="egrave" unicode="&#xe8;" horiz-adv-x="592" 
d="M552 263q1 -12 -8 -20.5t-21 -8.5h-396q2 -37 17 -69t40 -55.5t57.5 -37t69.5 -13.5q21 0 38 3.5t32 10.5t29 17t30 23q5 4 9.5 6t11.5 2q12 0 21 -8.5t9 -20.5q0 -7 -2.5 -11.5t-6.5 -9.5q-14 -17 -34.5 -30t-43.5 -22t-47 -14t-46 -5q-50 0 -94.5 19t-77.5 52t-52 77
t-19 94t19 94.5t52 77.5t77.5 52t94.5 19q48 0 90.5 -16t75.5 -45.5t53 -69.5t22 -88v-3zM487 293q-8 30 -25 54.5t-40.5 42t-51.5 27t-59 9.5t-59.5 -10t-51.5 -27.5t-40.5 -42t-25.5 -53.5h353zM332 602q0 -12 -8.5 -20.5t-20.5 -8.5q-11 0 -21 8l-89 90q-9 9 -9 21
t8.5 20.5t20.5 8.5q11 0 21 -8l90 -90q8 -10 8 -21z" />
    <glyph glyph-name="ecircumflex" unicode="&#xea;" horiz-adv-x="592" 
d="M552 263q1 -12 -8 -20.5t-21 -8.5h-396q2 -37 17 -69t40 -55.5t57.5 -37t69.5 -13.5q21 0 38 3.5t32 10.5t29 17t30 23q5 4 9.5 6t11.5 2q12 0 21 -8.5t9 -20.5q0 -7 -2.5 -11.5t-6.5 -9.5q-14 -17 -34.5 -30t-43.5 -22t-47 -14t-46 -5q-50 0 -94.5 19t-77.5 52t-52 77
t-19 94t19 94.5t52 77.5t77.5 52t94.5 19q48 0 90.5 -16t75.5 -45.5t53 -69.5t22 -88v-3zM487 293q-8 30 -25 54.5t-40.5 42t-51.5 27t-59 9.5t-59.5 -10t-51.5 -27.5t-40.5 -42t-25.5 -53.5h353zM427 582q0 -11 -7 -18.5t-18 -7.5q-9 0 -18 7l-76 79l-76 -79q-9 -7 -18 -7
q-11 0 -18 7.5t-7 18.5q0 9 7 18l94 97q9 7 18 7t18 -7l94 -97q7 -9 7 -18z" />
    <glyph glyph-name="edieresis" unicode="&#xeb;" horiz-adv-x="592" 
d="M552 263q1 -12 -8 -20.5t-21 -8.5h-396q2 -37 17 -69t40 -55.5t57.5 -37t69.5 -13.5q21 0 38 3.5t32 10.5t29 17t30 23q5 4 9.5 6t11.5 2q12 0 21 -8.5t9 -20.5q0 -7 -2.5 -11.5t-6.5 -9.5q-14 -17 -34.5 -30t-43.5 -22t-47 -14t-46 -5q-50 0 -94.5 19t-77.5 52t-52 77
t-19 94t19 94.5t52 77.5t77.5 52t94.5 19q48 0 90.5 -16t75.5 -45.5t53 -69.5t22 -88v-3zM487 293q-8 30 -25 54.5t-40.5 42t-51.5 27t-59 9.5t-59.5 -10t-51.5 -27.5t-40.5 -42t-25.5 -53.5h353zM435 627q0 -18 -13 -31t-31 -13t-31 13t-13 31q0 19 12.5 31.5t31.5 12.5
t31.5 -12.5t12.5 -31.5zM265 627q0 -18 -13 -31t-31 -13t-31 13t-13 31q0 19 12.5 31.5t31.5 12.5t31.5 -12.5t12.5 -31.5z" />
    <glyph glyph-name="iacute" unicode="&#xed;" horiz-adv-x="278" 
d="M110.993 602q0 -12 8.5 -20.5q8.49902 -8.5 20.498 -8.5q11 0 20.999 8l88.9941 90q9 9 9 21t-8.5 20.5q-8.49902 8.5 -20.498 8.5q-11 0 -20.999 -8l-89.9941 -90q-8 -10 -8 -21zM193 29q0 -12 -8.5 -20.5t-20.5 -8.5t-21 8.5t-9 20.5v427q0 12 9 20.5t21 8.5t20.5 -8.5
t8.5 -20.5v-427z" />
    <glyph glyph-name="igrave" unicode="&#xec;" horiz-adv-x="278" 
d="M178 602q0 -12 -8.5 -20.5t-20.5 -8.5q-11 0 -21 8l-89 90q-9 9 -9 21t8.5 20.5t20.5 8.5q11 0 21 -8l90 -90q8 -10 8 -21zM184 29q0 -12 -8.5 -20.5t-20.5 -8.5t-21 8.5t-9 20.5v427q0 12 9 20.5t21 8.5t20.5 -8.5t8.5 -20.5v-427z" />
    <glyph glyph-name="icircumflex" unicode="&#xee;" horiz-adv-x="269" 
d="M267 582q0 -11 -7 -18.5t-18 -7.5q-9 0 -18 7l-76 79l-76 -79q-9 -7 -18 -7q-11 0 -18 7.5t-7 18.5q0 9 7 18l94 97q9 7 18 7t18 -7l94 -97q7 -9 7 -18zM184 29q0 -12 -8.5 -20.5t-20.5 -8.5t-21 8.5t-9 20.5v427q0 12 9 20.5t21 8.5t20.5 -8.5t8.5 -20.5v-427z" />
    <glyph glyph-name="idieresis" unicode="&#xef;" horiz-adv-x="267" 
d="M273 627q0 -18 -13 -31t-31 -13t-31 13t-13 31q0 19 12.5 31.5t31.5 12.5t31.5 -12.5t12.5 -31.5zM103 627q0 -18 -13 -31t-31 -13t-31 13t-13 31q0 19 12.5 31.5t31.5 12.5t31.5 -12.5t12.5 -31.5zM182 29q0 -12 -8.5 -20.5t-20.5 -8.5t-21 8.5t-9 20.5v427q0 12 9 20.5
t21 8.5t20.5 -8.5t8.5 -20.5v-427z" />
    <glyph glyph-name="ntilde" unicode="&#xf1;" horiz-adv-x="518" 
d="M461 29q0 -12 -8.5 -20.5t-20.5 -8.5t-21 8.5t-9 20.5v285q0 23 -9 43.5t-24 35.5t-35.5 24t-43.5 9t-43.5 -9t-35.5 -24t-24 -35.5t-9 -43.5q0 -2 -1 -4.5t-1 -5.5v-275q0 -12 -8.5 -20.5t-20.5 -8.5q-13 0 -21.5 8.5t-8.5 20.5v433q0 13 8.5 21.5t21.5 8.5q11 0 17 -5
t8.5 -12.5t3 -16.5t0.5 -17q23 21 52.5 32.5t61.5 11.5q35 0 66 -13.5t54.5 -37t37 -54.5t13.5 -66v-285zM368 601q-21 0 -36.5 8.5t-29 19t-26.5 19.5t-29 9q-14 0 -20.5 -8.5t-12 -18.5t-11 -18.5t-17.5 -8.5q-9 0 -18.5 6.5t-9.5 17.5q0 6 3 14q12 28 30.5 48t51.5 20
q22 0 39 -9t31.5 -19.5t27 -19t24.5 -8.5q13 0 19 7t10.5 16t9.5 16t15 7t19.5 -6.5t9.5 -17.5q0 -5 -1 -8t-3 -7q-12 -25 -28.5 -42t-47.5 -17z" />
    <glyph glyph-name="oacute" unicode="&#xf3;" horiz-adv-x="600" 
d="M68 242q0 50 19 94.5t52 77.5t77.5 52t94.5 19t94 -19t77 -52t52 -77.5t19 -94.5t-19 -94t-52 -77t-77 -52t-94 -19t-94.5 19t-77.5 52t-52 77t-19 94zM127 242q0 -38 14.5 -71.5t39.5 -58t58.5 -39t71.5 -14.5t71.5 14.5t58 39t39 58t14.5 71.5t-14.5 71.5t-39 58.5
t-58 39.5t-71.5 14.5t-71.5 -14.5t-58.5 -39.5t-39.5 -58.5t-14.5 -71.5zM253.984 602q0 -12 8.5 -20.5q8.49902 -8.5 20.498 -8.5q11 0 20.999 8l88.9941 90q9 9 9 21t-8.5 20.5q-8.49902 8.5 -20.498 8.5q-11 0 -20.999 -8l-89.9941 -90q-8 -10 -8 -21z" />
    <glyph glyph-name="ograve" unicode="&#xf2;" horiz-adv-x="600" 
d="M68 242q0 50 19 94.5t52 77.5t77.5 52t94.5 19t94 -19t77 -52t52 -77.5t19 -94.5t-19 -94t-52 -77t-77 -52t-94 -19t-94.5 19t-77.5 52t-52 77t-19 94zM127 242q0 -38 14.5 -71.5t39.5 -58t58.5 -39t71.5 -14.5t71.5 14.5t58 39t39 58t14.5 71.5t-14.5 71.5t-39 58.5
t-58 39.5t-71.5 14.5t-71.5 -14.5t-58.5 -39.5t-39.5 -58.5t-14.5 -71.5zM335 602q0 -12 -8.5 -20.5t-20.5 -8.5q-11 0 -21 8l-89 90q-9 9 -9 21t8.5 20.5t20.5 8.5q11 0 21 -8l90 -90q8 -10 8 -21z" />
    <glyph glyph-name="ocircumflex" unicode="&#xf4;" horiz-adv-x="600" 
d="M68 242q0 50 19 94.5t52 77.5t77.5 52t94.5 19t94 -19t77 -52t52 -77.5t19 -94.5t-19 -94t-52 -77t-77 -52t-94 -19t-94.5 19t-77.5 52t-52 77t-19 94zM127 242q0 -38 14.5 -71.5t39.5 -58t58.5 -39t71.5 -14.5t71.5 14.5t58 39t39 58t14.5 71.5t-14.5 71.5t-39 58.5
t-58 39.5t-71.5 14.5t-71.5 -14.5t-58.5 -39.5t-39.5 -58.5t-14.5 -71.5zM427 582q0 -11 -7 -18.5t-18 -7.5q-9 0 -18 7l-76 79l-76 -79q-9 -7 -18 -7q-11 0 -18 7.5t-7 18.5q0 9 7 18l94 97q9 7 18 7t18 -7l94 -97q7 -9 7 -18z" />
    <glyph glyph-name="odieresis" unicode="&#xf6;" horiz-adv-x="600" 
d="M68 242q0 50 19 94.5t52 77.5t77.5 52t94.5 19t94 -19t77 -52t52 -77.5t19 -94.5t-19 -94t-52 -77t-77 -52t-94 -19t-94.5 19t-77.5 52t-52 77t-19 94zM127 242q0 -38 14.5 -71.5t39.5 -58t58.5 -39t71.5 -14.5t71.5 14.5t58 39t39 58t14.5 71.5t-14.5 71.5t-39 58.5
t-58 39.5t-71.5 14.5t-71.5 -14.5t-58.5 -39.5t-39.5 -58.5t-14.5 -71.5zM439 627q0 -18 -13 -31t-31 -13t-31 13t-13 31q0 19 12.5 31.5t31.5 12.5t31.5 -12.5t12.5 -31.5zM269 627q0 -18 -13 -31t-31 -13t-31 13t-13 31q0 19 12.5 31.5t31.5 12.5t31.5 -12.5t12.5 -31.5z
" />
    <glyph glyph-name="otilde" unicode="&#xf5;" horiz-adv-x="600" 
d="M68 242q0 50 19 94.5t52 77.5t77.5 52t94.5 19t94 -19t77 -52t52 -77.5t19 -94.5t-19 -94t-52 -77t-77 -52t-94 -19t-94.5 19t-77.5 52t-52 77t-19 94zM127 242q0 -38 14.5 -71.5t39.5 -58t58.5 -39t71.5 -14.5t71.5 14.5t58 39t39 58t14.5 71.5t-14.5 71.5t-39 58.5
t-58 39.5t-71.5 14.5t-71.5 -14.5t-58.5 -39.5t-39.5 -58.5t-14.5 -71.5zM376 601q-21 0 -36.5 8.5t-29 19t-26.5 19.5t-29 9q-14 0 -20.5 -8.5t-12 -18.5t-11 -18.5t-17.5 -8.5q-9 0 -18.5 6.5t-9.5 17.5q0 6 3 14q12 28 30.5 48t51.5 20q22 0 39 -9t31.5 -19.5t27 -19
t24.5 -8.5q13 0 19 7t10.5 16t9.5 16t15 7t19.5 -6.5t9.5 -17.5q0 -5 -1 -8t-3 -7q-12 -25 -28.5 -42t-47.5 -17z" />
    <glyph glyph-name="uacute" unicode="&#xfa;" horiz-adv-x="520" 
d="M460 186q0 -38 -14.5 -71.5t-39 -58.5t-58 -39.5t-71.5 -14.5t-71.5 14.5t-58.5 39.5t-39.5 58.5t-14.5 71.5v265q0 12 8.5 21t21.5 9q12 0 20.5 -9t8.5 -21v-265q0 -26 10 -48.5t27 -39.5t39.5 -27t48.5 -10t48.5 10t39.5 27t27 39.5t10 48.5v265q0 12 8.5 21t20.5 9
t20.5 -9t8.5 -21v-265zM226.986 602q0 -12 8.49902 -20.5q8.5 -8.5 20.499 -8.5q10.999 0 20.999 8l88.9941 90q9 9 9 21t-8.5 20.5q-8.49902 8.5 -20.499 8.5q-10.999 0 -20.998 -8l-89.9951 -90q-7.99902 -10 -7.99902 -21z" />
    <glyph glyph-name="ugrave" unicode="&#xf9;" horiz-adv-x="520" 
d="M460 186q0 -38 -14.5 -71.5t-39 -58.5t-58 -39.5t-71.5 -14.5t-71.5 14.5t-58.5 39.5t-39.5 58.5t-14.5 71.5v265q0 12 8.5 21t21.5 9q12 0 20.5 -9t8.5 -21v-265q0 -26 10 -48.5t27 -39.5t39.5 -27t48.5 -10t48.5 10t39.5 27t27 39.5t10 48.5v265q0 12 8.5 21t20.5 9
t20.5 -9t8.5 -21v-265zM307 602q0 -12 -8.5 -20.5t-20.5 -8.5q-11 0 -21 8l-89 90q-9 9 -9 21t8.5 20.5t20.5 8.5q11 0 21 -8l90 -90q8 -10 8 -21z" />
    <glyph glyph-name="ucircumflex" unicode="&#xfb;" horiz-adv-x="520" 
d="M460 186q0 -38 -14.5 -71.5t-39 -58.5t-58 -39.5t-71.5 -14.5t-71.5 14.5t-58.5 39.5t-39.5 58.5t-14.5 71.5v265q0 12 8.5 21t21.5 9q12 0 20.5 -9t8.5 -21v-265q0 -26 10 -48.5t27 -39.5t39.5 -27t48.5 -10t48.5 10t39.5 27t27 39.5t10 48.5v265q0 12 8.5 21t20.5 9
t20.5 -9t8.5 -21v-265zM389 582q0 -11 -7 -18.5t-18 -7.5q-9 0 -18 7l-76 79l-76 -79q-9 -7 -18 -7q-11 0 -18 7.5t-7 18.5q0 9 7 18l94 97q9 7 18 7t18 -7l94 -97q7 -9 7 -18z" />
    <glyph glyph-name="udieresis" unicode="&#xfc;" horiz-adv-x="520" 
d="M460 186q0 -38 -14.5 -71.5t-39 -58.5t-58 -39.5t-71.5 -14.5t-71.5 14.5t-58.5 39.5t-39.5 58.5t-14.5 71.5v265q0 12 8.5 21t21.5 9q12 0 20.5 -9t8.5 -21v-265q0 -26 10 -48.5t27 -39.5t39.5 -27t48.5 -10t48.5 10t39.5 27t27 39.5t10 48.5v265q0 12 8.5 21t20.5 9
t20.5 -9t8.5 -21v-265zM399 627q0 -18 -13 -31t-31 -13t-31 13t-13 31q0 19 12.5 31.5t31.5 12.5t31.5 -12.5t12.5 -31.5zM229 627q0 -18 -13 -31t-31 -13t-31 13t-13 31q0 19 12.5 31.5t31.5 12.5t31.5 -12.5t12.5 -31.5z" />
    <glyph glyph-name="dagger" unicode="&#x2020;" horiz-adv-x="331" 
d="M321 455q0 -12 -9 -20.5t-21 -8.5h-96v-510q0 -12 -9 -21t-21 -9t-20.5 9t-8.5 21v510h-97q-12 0 -20.5 8.5t-8.5 20.5q0 13 8.5 21.5t20.5 8.5h97v260q0 12 8.5 20.5t20.5 8.5t21 -8.5t9 -20.5v-260h96q12 0 21 -8.5t9 -21.5z" />
    <glyph glyph-name="degree" unicode="&#xb0;" horiz-adv-x="263" 
d="M243 674q0 -20 -7.5 -38t-21 -31.5t-31.5 -21.5t-39 -8t-39 8t-31.5 21.5t-21.5 31.5t-8 38q0 42 29 71t71 29t70.5 -29t28.5 -71zM200 674q0 24 -16.5 40.5t-39.5 16.5q-24 0 -40.5 -16.5t-16.5 -40.5q0 -23 16.5 -39.5t40.5 -16.5q23 0 39.5 16.5t16.5 39.5z" />
    <glyph glyph-name="cent" unicode="&#xa2;" horiz-adv-x="509" 
d="M477 393q0 -12 -9 -20.5t-21 -8.5q-7 0 -11.5 2t-9.5 6q-24 21 -47.5 34t-52.5 18v-363q29 5 52.5 18t47.5 34q5 4 9.5 6t11.5 2q12 0 21 -8.5t9 -20.5q0 -7 -2.5 -11.5t-6.5 -9.5q-26 -29 -64.5 -46.5t-77.5 -22.5v-50q0 -12 -8.5 -21t-20.5 -9q-13 0 -21.5 9t-8.5 21
v50q-45 5 -84 26t-67.5 53t-45 73.5t-16.5 87.5t16.5 87.5t45 74t67.5 53.5t84 26v54q0 12 8.5 21t21.5 9q12 0 20.5 -9t8.5 -21v-54q39 -5 77.5 -22.5t64.5 -46.5q9 -11 9 -21zM267 61v363q-33 -5 -61 -21.5t-48.5 -40.5t-32.5 -55t-12 -65t12 -64.5t32.5 -54.5t48.5 -40.5
t61 -21.5z" />
    <glyph glyph-name="sterling" unicode="&#xa3;" horiz-adv-x="641" 
d="M565 29q0 -12 -8.5 -20.5t-20.5 -8.5h-453q-10 0 -17.5 6t-10.5 15q-2 9 1 18.5t11 14.5q47 31 74 57.5t38 63.5t8 90.5t-16 137.5q-2 6 -2.5 12t-1.5 11h-84q-12 0 -20.5 8.5t-8.5 20.5q0 13 8.5 21.5t20.5 8.5h82q1 72 22.5 120t45.5 77q34 39 79.5 61.5t92.5 22.5h131
q12 0 20.5 -8.5t8.5 -20.5t-8.5 -21t-20.5 -9h-131q-26 0 -61.5 -14t-65.5 -49q-20 -23 -36.5 -61t-18.5 -98h183q12 0 20.5 -8.5t8.5 -21.5q0 -12 -8.5 -20.5t-20.5 -8.5h-179q0 -4 0.5 -7t1.5 -7q11 -72 15 -125t-1.5 -93.5t-22.5 -72.5t-49 -62h365q12 0 20.5 -8.5
t8.5 -21.5z" />
    <glyph glyph-name="bullet" unicode="&#x2022;" horiz-adv-x="246" 
d="M201 243q0 -32 -23 -55t-55 -23t-55 23t-23 55q0 33 22.5 55t55.5 22q32 0 55 -22t23 -55z" />
    <glyph glyph-name="paragraph" unicode="&#xb6;" horiz-adv-x="545" 
d="M323 29q0 -12 -8.5 -20.5t-21.5 -8.5q-12 0 -20.5 8.5t-8.5 20.5v260q-44 6 -82.5 26.5t-67 52.5t-44.5 72.5t-16 86.5q0 49 19 93t51 76t75.5 51t93.5 19h124q12 0 20.5 -8.5t8.5 -20.5v-708q0 -12 -8.5 -20.5t-20.5 -8.5t-20.5 8.5t-8.5 20.5v678h-65v-390v-288z" />
    <glyph glyph-name="germandbls" unicode="&#xdf;" horiz-adv-x="564" 
d="M510 243q0 -50 -19 -94t-52 -77t-77 -52t-94 -19q-12 0 -20.5 8.5t-8.5 20.5q0 13 8.5 21.5t20.5 8.5q38 0 71.5 14.5t58 39t39 58t14.5 71.5t-14.5 71.5t-39 58t-58 39t-71.5 14.5q-12 0 -20.5 8.5t-8.5 20.5q0 13 8.5 21.5t20.5 8.5q23 0 43 9t35 24t24 35t9 43t-9 43
t-24 35t-35 24t-43 9t-43 -9t-35 -24t-24 -35t-9 -43v-567q0 -12 -8.5 -20.5t-20.5 -8.5q-13 0 -21.5 8.5t-8.5 20.5v567q0 35 13.5 66t36.5 54t54 36.5t66 13.5t66 -13.5t54 -36.5t36.5 -54t13.5 -66q0 -39 -17 -74.5t-49 -60.5q31 -15 56.5 -38t43.5 -51.5t28 -61
t10 -67.5z" />
    <glyph glyph-name="registered" unicode="&#xae;" horiz-adv-x="507" 
d="M475 553q0 -46 -17.5 -86.5t-47.5 -70.5t-70.5 -47.5t-86.5 -17.5t-86 17.5t-70 47.5t-47.5 70.5t-17.5 86.5t17.5 86t47.5 70t70 47.5t86 17.5t86.5 -17.5t70.5 -47.5t47.5 -70t17.5 -86zM435 553q0 37 -14.5 70t-39 58t-58 39t-70.5 14q-38 0 -70.5 -14t-57.5 -39
t-39 -58t-14 -70q0 -38 14 -71t39 -57.5t57.5 -39t70.5 -14.5q37 0 70.5 14.5t58 39t39 57.5t14.5 71zM335 606q0 -24 -15.5 -44t-44.5 -27q9 -15 17.5 -30t16 -28.5t12 -22.5t4.5 -12q0 -7 -4.5 -12t-11.5 -5t-13 8l-57 102h-9v-93q0 -7 -4.5 -12t-10.5 -5q-7 0 -11.5 5
t-4.5 12v218q0 7 4.5 12t11.5 5h52q29 0 48.5 -21.5t19.5 -49.5zM304 606q0 14 -10.5 26t-26.5 12h-37v-77h37q16 0 26.5 12t10.5 27z" />
    <glyph glyph-name="copyright" unicode="&#xa9;" horiz-adv-x="507" 
d="M475 553q0 -46 -17.5 -86.5t-47.5 -70.5t-70.5 -47.5t-86.5 -17.5t-86 17.5t-70 47.5t-47.5 70.5t-17.5 86.5t17.5 86t47.5 70t70 47.5t86 17.5t86.5 -17.5t70.5 -47.5t47.5 -70t17.5 -86zM435 553q0 37 -14.5 70t-39 58t-58 39t-70.5 14q-38 0 -70.5 -14t-57.5 -39
t-39 -58t-14 -70q0 -38 14 -71t39 -57.5t57.5 -39t70.5 -14.5q37 0 70.5 14.5t58 39t39 57.5t14.5 71zM347 627q0 -8 -6 -14t-14 -6q-6 0 -12 5t-15 11t-21 11t-28 5q-37 0 -63 -26t-26 -63t26 -63t63 -26q16 0 28 5t21 11t15 11t12 5q8 0 14 -6t6 -14q0 -7 -5 -14
q-16 -18 -42 -28t-49 -10q-27 0 -50 10t-40.5 27.5t-27.5 41t-10 50.5q0 26 10 49.5t27.5 41t40.5 28t50 10.5q23 0 49 -10t42 -28q5 -7 5 -14z" />
    <glyph glyph-name="trademark" unicode="&#x2122;" horiz-adv-x="413" 
d="M363 598q0 -6 -4.5 -10t-9.5 -4q-6 0 -10.5 4t-4.5 10v103l-55 -109q-5 -8 -13 -8t-13 8l-55 109v-103q0 -6 -4.5 -10t-9.5 -4q-6 0 -10.5 4t-4.5 10v162q0 6 4.5 10t10.5 4q9 0 12 -8l70 -137l70 137q3 8 13 8q5 0 9.5 -4t4.5 -10v-162zM148 762q0 -14 -14 -14h-35v-150
q0 -6 -4.5 -10t-10.5 -4q-5 0 -9.5 4t-4.5 10v150h-35q-14 0 -14 14q0 5 4 9.5t10 4.5h99q6 0 10 -4.5t4 -9.5z" />
    <glyph glyph-name="acute" unicode="&#xb4;" horiz-adv-x="212" 
d="M180 745q0 -11 -8 -21l-90 -90q-10 -8 -21 -8q-12 0 -20.5 8.5t-8.5 20.5t9 21l89 90q10 8 21 8q12 0 20.5 -8.5t8.5 -20.5z" />
    <glyph glyph-name="dieresis" unicode="&#xa8;" horiz-adv-x="322" 
d="M290 627q0 -18 -13 -31t-31 -13t-31 13t-13 31q0 19 12.5 31.5t31.5 12.5t31.5 -12.5t12.5 -31.5zM120 627q0 -18 -13 -31t-31 -13t-31 13t-13 31q0 19 12.5 31.5t31.5 12.5t31.5 -12.5t12.5 -31.5z" />
    <glyph glyph-name="notequal" unicode="&#x2260;" horiz-adv-x="661" 
d="M607 139q0 -12 -8.5 -20.5t-20.5 -8.5h-263l-70 -175q-8 -18 -28 -18q-7 0 -11 2q-11 5 -16 16t0 22l62 153h-169q-12 0 -20.5 8.5t-8.5 20.5q0 13 8.5 21.5t20.5 8.5h193l63 155h-256q-12 0 -20.5 8.5t-8.5 20.5q0 13 8.5 21.5t20.5 8.5h280l65 160q5 11 16 16t22 0
t16 -16t0 -22l-56 -138h152q12 0 20.5 -8.5t8.5 -21.5q0 -12 -8.5 -20.5t-20.5 -8.5h-176l-63 -155h239q12 0 20.5 -8.5t8.5 -21.5z" />
    <glyph glyph-name="AE" unicode="&#xc6;" horiz-adv-x="1092" 
d="M664 0q-20 0 -27 18l-83 195h-382l-84 -195q-7 -18 -27 -18q-12 0 -20.5 8.5t-8.5 20.5q0 4 2 12l302 707q7 18 27 18h606q12 0 20.5 -8.5t8.5 -20.5t-8.5 -20.5t-20.5 -8.5h-562l124 -292h430q12 0 20.5 -8.5t8.5 -20.5t-8.5 -20.5t-20.5 -8.5h-405l127 -299h326
q12 0 20.5 -9t8.5 -21t-8.5 -20.5t-20.5 -8.5h-345zM529 272l-166 390l-166 -390h332z" />
    <glyph glyph-name="Oslash" unicode="&#xd8;" horiz-adv-x="912" 
d="M835 380q0 -79 -30 -148t-81.5 -120.5t-120.5 -81.5t-147 -30q-29 0 -56 4t-53 12l-49 -121q-8 -19 -27 -19q-5 0 -11 2q-11 5 -16 16t0 23l48 120q-48 23 -88 58t-68.5 79.5t-44 96.5t-15.5 109q0 78 30 147t81.5 120.5t120.5 81.5t148 30q64 0 118 -19l45 112
q5 11 16 16t22 0t16 -16t0 -22l-45 -112q46 -24 84 -59t65.5 -78.5t42.5 -94.5t15 -106zM777 380q0 46 -12.5 88.5t-35 79.5t-54 66.5t-69.5 49.5l-238 -594q42 -12 88 -12q66 0 124.5 25.5t102 69t69 102t25.5 125.5zM552 686q-45 15 -96 15q-66 0 -125 -25.5t-102.5 -69
t-69 -102t-25.5 -124.5q0 -48 13 -91.5t37 -81t57 -67t73 -49.5z" />
    <glyph glyph-name="infinity" unicode="&#x221e;" horiz-adv-x="1180" 
d="M590 192q-17 -25 -45 -58t-65.5 -63t-82.5 -50.5t-97 -20.5q-51 0 -96 19.5t-78 52.5t-52.5 78t-19.5 96t19.5 96t52.5 78t78 52.5t96 19.5q52 0 97 -20.5t82.5 -50.5t65.5 -63t45 -58q17 25 45 58t65.5 63t82.5 50.5t97 20.5q51 0 96 -19.5t78 -52.5t52.5 -78t19.5 -96
t-19.5 -96t-52.5 -78t-78 -52.5t-96 -19.5q-52 0 -97 20.5t-82.5 50.5t-65.5 63t-45 58zM1067 246q0 39 -14.5 73t-40 59.5t-59.5 40t-73 14.5q-47 0 -89 -23t-75 -53.5t-57 -62t-35 -48.5q11 -17 35 -48.5t57.5 -62.5t75 -53.5t88.5 -22.5q39 0 73 14.5t59.5 40t40 59.5
t14.5 73zM556 246q-11 17 -35 48.5t-57.5 62t-75 53.5t-88.5 23q-39 0 -73 -14.5t-59.5 -40t-40 -59.5t-14.5 -73t14.5 -73t40 -59.5t59.5 -40t73 -14.5q47 0 88.5 22.5t75 53.5t57.5 62.5t35 48.5z" />
    <glyph glyph-name="plusminus" unicode="&#xb1;" horiz-adv-x="596" 
d="M540 365q0 -13 -8 -21q-11 -9 -21 -9h-184v-184q0 -10 -9 -21q-8 -8 -21 -8q-12 0 -20.5 8.5t-8.5 20.5v184h-185q-12 0 -20.5 8.5t-8.5 21.5q0 12 8.5 20.5t20.5 8.5h185v184q0 13 8.5 21.5t20.5 8.5t21 -8.5t9 -21.5v-184h184q12 0 20.5 -8.5t8.5 -20.5zM542 29
q0 -12 -8.5 -20.5t-20.5 -8.5h-427q-12 0 -20.5 8.5t-8.5 20.5q0 13 8.5 21.5t20.5 8.5h427q12 0 20.5 -8.5t8.5 -21.5z" />
    <glyph glyph-name="lessequal" unicode="&#x2264;" horiz-adv-x="539" 
d="M463 153q0 -13 -8.5 -21.5t-20.5 -8.5q-8 0 -16 5l-338 213q-13 8 -13 25q0 15 13 25l338 213q7 4 16 4q12 0 20.5 -8.5t8.5 -20.5q0 -17 -14 -25l-298 -188l298 -188q14 -9 14 -25zM463 29q0 -12 -8.5 -20.5t-20.5 -8.5h-351q-12 0 -20.5 8.5t-8.5 20.5q0 13 8.5 21.5
t20.5 8.5h351q12 0 20.5 -8.5t8.5 -21.5z" />
    <glyph glyph-name="greaterequal" unicode="&#x2265;" horiz-adv-x="527" 
d="M473 366q0 -16 -14 -25l-338 -213q-7 -5 -15 -5q-13 0 -21.5 8.5t-8.5 21.5q0 16 14 25l298 188l-298 188q-14 8 -14 25q0 12 8.5 20.5t21.5 8.5q10 0 15 -4l338 -213q6 -5 10 -11t4 -14zM467 29q0 -12 -8.5 -20.5t-20.5 -8.5h-332q-13 0 -21.5 8.5t-8.5 20.5
q0 13 8.5 21.5t21.5 8.5h332q12 0 20.5 -8.5t8.5 -21.5z" />
    <glyph glyph-name="yen" unicode="&#xa5;" horiz-adv-x="585" 
d="M556 730q0 -9 -4 -14l-229 -410v-277q0 -12 -8.5 -20.5t-20.5 -8.5t-20.5 8.5t-8.5 20.5v277l-229 410q-4 5 -4 14q0 12 8.5 20.5t20.5 8.5q18 0 26 -15l207 -370l207 370q8 15 26 15q12 0 20.5 -8.5t8.5 -20.5zM582 344q0 -12 -8.5 -20.5t-20.5 -8.5h-495
q-12 0 -20.5 8.5t-8.5 20.5q0 13 8.5 21.5t20.5 8.5h495q12 0 20.5 -8.5t8.5 -21.5zM582 130q0 -12 -8.5 -20.5t-20.5 -8.5h-495q-12 0 -20.5 8.5t-8.5 20.5q0 13 8.5 21.5t20.5 8.5h495q12 0 20.5 -8.5t8.5 -21.5z" />
    <glyph glyph-name="mu" unicode="&#xb5;" horiz-adv-x="564" 
d="M465 29q0 -12 -8.5 -20.5t-20.5 -8.5t-20.5 8.5t-8.5 20.5v20q-25 -23 -57 -36t-68 -13t-68 13t-57 36v-244q0 -13 -8.5 -21.5t-20.5 -8.5q-13 0 -21.5 8.5t-8.5 21.5v379v265v7q0 12 8.5 20.5t21.5 8.5q12 0 20.5 -8.5t8.5 -20.5v-7v-265q0 -26 10 -48.5t27 -39.5
t39.5 -27t48.5 -10t48.5 10t39.5 26.5t27 39t10 48.5v1v265v7q0 12 8.5 20.5t20.5 8.5t20.5 -8.5t8.5 -20.5v-7v-265v-155z" />
    <glyph glyph-name="summation" unicode="&#x2211;" horiz-adv-x="807" 
d="M753 29q0 -12 -8.5 -20.5t-20.5 -8.5h-618q-20 0 -28 19q-7 19 8 32l359 332l-359 332q-15 13 -8 32q8 19 28 19h618q12 0 20.5 -8.5t8.5 -20.5t-8.5 -21t-20.5 -9h-543l328 -302q9 -9 9 -22t-9 -22l-328 -302h543q12 0 20.5 -8.5t8.5 -21.5z" />
    <glyph glyph-name="pi" unicode="&#x3c0;" horiz-adv-x="689" 
d="M613 461q0 -12 -8.5 -20.5t-20.5 -8.5h-77v-286q0 -32 22 -54t54 -22q12 0 21 -8.5t9 -20.5t-8.5 -20.5t-20.5 -8.5q-28 0 -52.5 10.5t-43 28.5t-29 42.5t-10.5 52.5v286h-212v-391q0 -12 -8.5 -20.5t-20.5 -8.5t-20.5 8.5t-8.5 20.5v391h-74q-12 0 -20.5 8.5t-8.5 20.5
t8.5 20.5t20.5 8.5h479q12 0 20.5 -8.5t8.5 -20.5z" />
    <glyph glyph-name="integral" unicode="&#x222b;" horiz-adv-x="431" 
d="M373 718q-7 -11 -18.5 -14t-22.5 4q-26 15 -47 1q-19 -11 -29.5 -36.5t-10.5 -60.5v-575q0 -95 -48 -137q-35 -30 -88 -30q-8 0 -14.5 0.5t-14.5 1.5q-12 2 -20 11.5t-6 21.5t11.5 20t21.5 6q48 -7 71 14q17 15 22.5 42t5.5 50v575q0 52 18 90.5t51 57.5q26 14 53.5 14
t53.5 -16q11 -6 14 -17.5t-3 -22.5z" />
    <glyph glyph-name="Omega" unicode="&#x2126;" horiz-adv-x="918" 
d="M813 0h-204q-11 0 -19 6t-10 17q-2 10 2.5 19t13.5 14q43 21 77.5 53.5t59 73t38 87t13.5 96.5q0 70 -25.5 132.5t-70 108.5t-103.5 73t-126 27t-126 -27t-103 -73t-69.5 -108.5t-25.5 -132.5q0 -50 13.5 -96.5t38 -87t59 -73t77.5 -53.5q9 -5 13 -14t2 -19
q-2 -11 -10 -17t-18 -6h-204q-13 0 -21.5 8.5t-8.5 20.5q0 13 8.5 21.5t21.5 8.5h107q-64 57 -100.5 136.5t-36.5 170.5q0 82 30 155t82 127.5t122 86t149 31.5t149 -31.5t122 -86t82 -127.5t30 -155q0 -91 -36.5 -170.5t-100.5 -136.5h108q12 0 20.5 -8.5t8.5 -21.5
q0 -12 -8.5 -20.5t-20.5 -8.5z" />
    <glyph glyph-name="ae" unicode="&#xe6;" horiz-adv-x="956" 
d="M418 234h-218q-36 0 -61.5 -26t-25.5 -62t25.5 -61.5t61.5 -25.5h218v175zM437 0h-237q-30 0 -56.5 11.5t-46.5 31.5t-31.5 46.5t-11.5 56.5t11.5 57t31.5 47t46.5 31.5t56.5 11.5h211q-8 29 -25.5 53.5t-40.5 42t-51.5 27.5t-59.5 10q-21 0 -38 -3.5t-32 -10.5
t-29.5 -17t-30.5 -23q-5 -4 -9 -6t-12 -2q-12 0 -20.5 8.5t-8.5 20.5t9 21q14 17 34.5 30t43.5 22t47 14t46 5q67 0 124 -34t89 -93q32 59 89.5 93t123.5 34q48 0 91 -16t75.5 -45t52.5 -69.5t23 -88.5v-3q1 -12 -8 -20.5t-22 -8.5h-395q1 -37 16 -69t40 -55.5t57.5 -37
t69.5 -13.5q43 0 70.5 14t59.5 40q5 4 9.5 6t11.5 2q12 0 20.5 -8.5t8.5 -20.5q0 -11 -8 -21q-15 -17 -35 -30t-43.5 -22t-47.5 -14t-46 -5q-28 0 -56.5 7t-54 20t-47 32.5t-35.5 44.5v-73q0 -13 -8 -22t-22 -9zM837 293q-17 60 -65.5 96.5t-111.5 36.5q-31 0 -59 -10
t-51.5 -27.5t-40.5 -42t-25 -53.5h353z" />
    <glyph glyph-name="oslash" unicode="&#xf8;" horiz-adv-x="600" 
d="M546 244q0 -51 -19.5 -95.5t-53 -78t-78 -53t-95.5 -19.5q-15 0 -30 2t-29 5l-28 -70q-8 -18 -28 -18q-7 0 -11 2q-11 5 -16 16t0 22l28 69q-59 31 -95.5 89t-36.5 129q0 51 19.5 96t53 78t78 52.5t95.5 19.5q18 0 35.5 -2.5t34.5 -7.5l26 63q5 11 16 16t22 0t16 -16
t0 -22l-26 -65q55 -32 88.5 -88t33.5 -124zM487 244q0 50 -23.5 91t-61.5 66l-139 -340q9 -2 18.5 -3t18.5 -1q39 0 73 14.5t59.5 40t40 59.5t14.5 73zM348 425q-23 6 -48 6q-39 0 -73 -14.5t-59.5 -40t-40 -59.5t-14.5 -73q0 -53 26 -96t69 -67z" />
    <glyph glyph-name="questiondown" unicode="&#xbf;" horiz-adv-x="594" 
d="M341 730q0 -18 -13 -31q-12 -12 -31 -12t-31 12q-13 12 -13 31t13 31q12 13 31 13t31 -13q13 -13 13 -31zM539 243q0 -51 -19 -96t-56 -80q-36 -35 -82 -52t-97 -15q-46 2 -87 21t-72.5 50t-50.5 72t-21 88q-3 71 30.5 131t96.5 94q20 11 36 20t27 19.5t17 25t6 36.5
q0 12 9 20.5t21 8.5t20.5 -8.5t8.5 -20.5q0 -30 -8 -52t-23.5 -39.5t-37 -32t-48.5 -29.5q-48 -26 -73 -71t-23 -99q1 -35 15.5 -66.5t38 -55t55 -38t66.5 -15.5q79 -3 136 51q27 26 42 60.5t15 72.5q0 12 8.5 20.5t20.5 8.5t20.5 -8.5t8.5 -20.5z" />
    <glyph glyph-name="exclamdown" unicode="&#xa1;" horiz-adv-x="285" 
d="M186 724q0 -19 -13 -31q-12 -13 -31 -13t-31 13q-13 13 -13 31t13 31t31 13t31 -13q13 -12 13 -31zM172 29q0 -12 -9 -20.5t-21 -8.5t-20.5 8.5t-8.5 20.5v522q0 12 8.5 20.5t20.5 8.5t21 -8.5t9 -20.5v-522z" />
    <glyph glyph-name="logicalnot" unicode="&#xac;" horiz-adv-x="776" 
d="M678 243q0 -15 -9.5 -22.5t-20.5 -7.5t-20.5 7.5t-9.5 22.5v212h-512q-15 0 -22.5 9.5t-7.5 20.5t7.5 20.5t22.5 9.5h542q12 0 21 -9t9 -21v-242z" />
    <glyph glyph-name="radical" unicode="&#x221a;" horiz-adv-x="624" 
d="M570 750q0 -2 -10 -32.5t-27 -78.5t-38.5 -109.5t-44.5 -126t-46 -128.5t-41.5 -116.5t-32 -89.5t-17.5 -48q-2 -8 -8 -14.5t-15 -6.5q-8 0 -14 5.5t-9 12.5l-106 229h-82q-25 0 -25 25q0 11 7 18t18 7h98q5 0 13 -5t10 -10l87 -187l234 662q5 17 23 17q10 0 18 -6.5
t8 -17.5z" />
    <glyph glyph-name="florin" unicode="&#x192;" horiz-adv-x="632" 
d="M578 538q0 -13 -8.5 -21.5t-20.5 -8.5h-78q-31 0 -55 -20t-30 -51l-15 -81h125q12 0 20.5 -8.5t8.5 -20.5t-8.5 -20.5t-20.5 -8.5h-136l-45 -245q-8 -42 -29 -77.5t-52 -61t-69.5 -40t-81.5 -14.5q-12 0 -20.5 8.5t-8.5 20.5t8.5 20.5t20.5 8.5q32 0 61 11t52.5 30
t39 45.5t21.5 58.5l44 235h-30q-12 0 -20.5 8.5t-8.5 20.5t8.5 20.5t20.5 8.5h41l16 92q10 52 50 85.5t93 33.5h78q12 0 20.5 -8.5t8.5 -20.5z" />
    <glyph glyph-name="Delta" unicode="&#x2206;" horiz-adv-x="525" 
d="M468 35q6 -14 -0.5 -24.5t-22.5 -10.5h-365q-16 0 -22.5 10.5t-0.5 24.5l182 425q8 19 23 19t23 -19zM407 50l-145 337l-144 -337h289z" />
    <glyph glyph-name="guillemotleft" unicode="&#xab;" horiz-adv-x="703" 
d="M645 14q-9 -14 -25 -14q-8 0 -16 5l-338 213q-13 8 -13 25q0 15 13 25l338 213q11 6 22.5 3.5t18.5 -13.5q6 -10 3.5 -21.5t-12.5 -18.5l-299 -188l299 -189q10 -6 12.5 -17.5t-3.5 -22.5zM413 14q-9 -14 -25 -14q-8 0 -15 5l-338 213q-14 8 -14 25q0 16 14 25l338 213
q10 6 21.5 3.5t18.5 -13.5q7 -10 4.5 -21.5t-13.5 -18.5l-299 -188l299 -189q11 -6 13.5 -17.5t-4.5 -22.5z" />
    <glyph glyph-name="guillemotright" unicode="&#xbb;" horiz-adv-x="703" 
d="M682 243q0 -17 -13 -25l-338 -213q-8 -5 -16 -5q-16 0 -25 14q-6 11 -3.5 22.5t12.5 17.5l299 189l-299 188q-10 7 -12.5 18.5t3.5 21.5q7 11 18.5 13.5t22.5 -3.5l338 -213q13 -10 13 -25zM451 243q0 -16 -14 -25l-338 -213q-8 -5 -15 -5q-17 0 -25 14q-7 11 -4.5 22.5
t13.5 17.5l298 189l-298 188q-11 7 -13.5 18.5t4.5 21.5q6 11 17.5 13.5t22.5 -3.5l338 -213q6 -5 10 -11t4 -14z" />
    <glyph glyph-name="ellipsis" unicode="&#x2026;" horiz-adv-x="634" 
d="M536 44q0 -18 -13 -31t-31 -13t-31 13t-13 31q0 19 13 31t31 12q19 0 31.5 -12t12.5 -31zM356 44q0 -18 -13 -31t-31 -13t-31 13t-13 31q0 19 13 31t31 12q19 0 31.5 -12t12.5 -31zM186 44q0 -18 -13 -31t-31 -13t-31 13t-13 31q0 19 13 31t31 12q19 0 31.5 -12t12.5 -31
z" />
    <glyph glyph-name="Agrave" unicode="&#xc0;" horiz-adv-x="725" 
d="M703 41q5 -11 0 -22.5t-16 -16.5q-3 -1 -5.5 -1.5t-5.5 -0.5q-20 0 -27 18l-83 195h-382l-84 -195q-5 -11 -16 -16t-22 0t-16 16.5t0 22.5l91 213l211 494q7 18 27 18q19 0 27 -18l210 -494zM541 272l-166 390l-166 -390h332zM394 829q0 -12 -8.5 -20.5t-20.5 -8.5
q-11 0 -21 8l-89 90q-9 9 -9 21t8.5 20.5t20.5 8.5q11 0 21 -8l90 -90q8 -10 8 -21z" />
    <glyph glyph-name="Atilde" unicode="&#xc3;" horiz-adv-x="725" 
d="M703 41q5 -11 0 -22.5t-16 -16.5q-3 -1 -5.5 -1.5t-5.5 -0.5q-20 0 -27 18l-83 195h-382l-84 -195q-5 -11 -16 -16t-22 0t-16 16.5t0 22.5l91 213l211 494q7 18 27 18q19 0 27 -18l210 -494zM541 272l-166 390l-166 -390h332zM438 795q-21 0 -36.5 8.5t-29 19t-26.5 19.5
t-29 9q-14 0 -20.5 -8.5t-12 -18.5t-11 -18.5t-17.5 -8.5q-9 0 -18.5 6.5t-9.5 17.5q0 6 3 14q12 28 30.5 48t51.5 20q22 0 39 -9t31.5 -19.5t27 -19t24.5 -8.5q13 0 19 7t10.5 16t9.5 16t15 7t19.5 -6.5t9.5 -17.5q0 -5 -1 -8t-3 -7q-12 -25 -28.5 -42t-47.5 -17z" />
    <glyph glyph-name="Otilde" unicode="&#xd5;" horiz-adv-x="912" 
d="M531 795q-21 0 -36.5 8.5t-29 19t-26.5 19.5t-29 9q-14 0 -20.5 -8.5t-12 -18.5t-11 -18.5t-17.5 -8.5q-9 0 -18.5 6.5t-9.5 17.5q0 6 3 14q12 28 30.5 48t51.5 20q22 0 39 -9t31.5 -19.5t27 -19t24.5 -8.5q13 0 19 7t10.5 16t9.5 16t15 7t19.5 -6.5t9.5 -17.5
q0 -5 -1 -8t-3 -7q-12 -25 -28.5 -42t-47.5 -17zM845 380q0 -79 -30 -148t-81.5 -120.5t-120.5 -81.5t-147 -30q-79 0 -148 30t-120.5 81.5t-81.5 120.5t-30 148q0 78 30 147t81.5 120.5t120.5 81.5t148 30q78 0 147 -30t120.5 -81.5t81.5 -120.5t30 -147zM787 380
q0 66 -25.5 124.5t-69 102t-102 69t-124.5 25.5t-125 -25.5t-102.5 -69t-69 -102t-25.5 -124.5q0 -67 25.5 -125.5t69 -102t102.5 -69t125 -25.5t124.5 25.5t102 69t69 102t25.5 125.5z" />
    <glyph glyph-name="OE" unicode="&#x152;" horiz-adv-x="866" 
d="M811 30q0 -13 -8.5 -21.5t-20.5 -8.5h-225h-120q-79 0 -149 30t-122 82t-82 122t-30 149t30 148.5t81.5 121.5t120.5 82t148 31h57h291q12 0 20.5 -8.5t8.5 -20.5t-8.5 -20.5t-20.5 -8.5h-315v-295h268q12 0 20.5 -9t8.5 -21t-8.5 -20.5t-20.5 -8.5h-268v-295h315
q12 0 20.5 -8.5t8.5 -20.5zM408 60v646q-63 -6 -116.5 -33.5t-93.5 -71t-62.5 -99.5t-22.5 -119t22.5 -119t62.5 -99.5t93.5 -71t116.5 -33.5z" />
    <glyph glyph-name="oe" unicode="&#x153;" horiz-adv-x="1025" 
d="M971 263q1 -13 -7.5 -21t-21.5 -8h-396q2 -37 17 -69t40 -55.5t57.5 -37t68.5 -13.5q34 0 58 9.5t41.5 21.5t29.5 21.5t22 9.5q12 0 20.5 -8.5t8.5 -20.5q0 -11 -8 -21q-15 -17 -35 -30.5t-43.5 -22.5t-47.5 -13.5t-46 -4.5q-66 0 -123.5 34t-89.5 93q-32 -60 -90 -94.5
t-126 -34.5q-51 0 -95.5 19.5t-78 53t-53 78t-19.5 95.5t19.5 96t53 78t78 52.5t95.5 19.5q68 0 126.5 -35.5t90.5 -95.5q32 58 89 92t123 34q49 0 92 -16t75.5 -45t52 -69t22.5 -89v-3zM906 293q-17 60 -65.5 96.5t-111.5 36.5q-30 0 -58.5 -10t-51.5 -27.5t-40.5 -42
t-25.5 -53.5h353zM487 244q0 39 -14.5 73t-40 59.5t-59.5 40t-73 14.5t-73 -14.5t-59.5 -40t-40 -59.5t-14.5 -73t14.5 -73t40 -59.5t59.5 -40t73 -14.5t73 14.5t59.5 40t40 59.5t14.5 73z" />
    <glyph glyph-name="endash" unicode="&#x2013;" horiz-adv-x="473" 
d="M441 243q0 -13 -8.5 -21.5t-20.5 -8.5h-351q-12 0 -20.5 8.5t-8.5 21.5q0 12 8.5 20.5t20.5 8.5h351q12 0 20.5 -8.5t8.5 -20.5z" />
    <glyph glyph-name="emdash" unicode="&#x2014;" horiz-adv-x="865" 
d="M832 243q0 -13 -8.5 -21.5t-20.5 -8.5h-742q-12 0 -20.5 8.5t-8.5 21.5q0 12 8.5 20.5t20.5 8.5h742q12 0 20.5 -8.5t8.5 -20.5z" />
    <glyph glyph-name="quotedblleft" unicode="&#x201c;" horiz-adv-x="295" 
d="M144 746q0 -14 -11 -23q-14 -14 -21.5 -26t-7.5 -32v-14q14 -5 22 -16t8 -25q0 -19 -13 -31.5t-31 -12.5q-23 0 -34 15t-11 35v49q0 30 13.5 56.5t38.5 46.5q9 6 19 6q12 0 20 -8t8 -20zM273 746q0 -14 -11 -23q-14 -14 -21.5 -26t-7.5 -32v-14q14 -5 22 -16t8 -25
q0 -19 -13 -31.5t-31 -12.5q-23 0 -34 15t-11 35v49q0 30 14 56.5t39 46.5q7 6 18 6q12 0 20 -8t8 -20z" />
    <glyph glyph-name="quotedblright" unicode="&#x201d;" horiz-adv-x="295" 
d="M250 676q0 -31 -13.5 -57.5t-38.5 -45.5q-9 -7 -18 -7q-12 0 -20.5 8.5t-8.5 20.5q0 8 3 13t8 10q14 14 22 26t8 32v13q-14 5 -22 16.5t-8 25.5q0 18 12.5 30.5t31.5 12.5q22 0 33 -14.5t11 -35.5v-48zM121 676q0 -31 -13.5 -57.5t-38.5 -45.5q-11 -7 -19 -7
q-12 0 -20 8.5t-8 20.5q0 8 3 13t8 10q14 14 21.5 26t7.5 32v13q-14 5 -22 16.5t-8 25.5q0 18 13 30.5t31 12.5q23 0 34 -14.5t11 -35.5v-48z" />
    <glyph glyph-name="quoteleft" unicode="&#x2018;" horiz-adv-x="166" 
d="M144 746q0 -14 -11 -23q-14 -14 -21.5 -26t-7.5 -32v-14q14 -5 22 -16t8 -25q0 -19 -13 -31.5t-31 -12.5q-23 0 -34 15t-11 35v49q0 30 13.5 56.5t38.5 46.5q9 6 19 6q12 0 20 -8t8 -20z" />
    <glyph glyph-name="quoteright" unicode="&#x2019;" horiz-adv-x="166" 
d="M121 666q0 -31 -13.5 -57.5t-38.5 -45.5q-11 -7 -19 -7q-12 0 -20 8.5t-8 20.5q0 8 3 13t8 10q14 14 21.5 26t7.5 32v13q-14 5 -22 16.5t-8 25.5q0 18 13 30.5t31 12.5q23 0 34 -14.5t11 -35.5v-48z" />
    <glyph glyph-name="divide" unicode="&#xf7;" horiz-adv-x="673" 
d="M390 441q0 -18 -13 -31t-31 -13t-31 13t-13 31q0 19 13 31t31 12q19 0 31.5 -12t12.5 -31zM641 243q0 -13 -8.5 -21.5t-20.5 -8.5h-551q-12 0 -20.5 8.5t-8.5 21.5q0 12 8.5 20.5t20.5 8.5h551q12 0 20.5 -8.5t8.5 -20.5zM390 44q0 -18 -13 -31t-31 -13t-31 13t-13 31
q0 19 13 31t31 12q19 0 31.5 -12t12.5 -31z" />
    <glyph glyph-name="lozenge" unicode="&#x25ca;" horiz-adv-x="523" 
d="M461 225l-182 -182q-7 -8 -17.5 -8t-17.5 8l-183 182q-7 7 -7 17.5t7 17.5l183 183q7 7 17.5 7t17.5 -7l182 -183q8 -7 8 -17.5t-8 -17.5zM408 243l-147 147l-147 -147l147 -147z" />
    <glyph glyph-name="ydieresis" unicode="&#xff;" horiz-adv-x="457" 
d="M437 456q0 -5 -2 -11l-167 -414l-87 -213q-8 -18 -28 -18q-12 0 -20.5 8.5t-8.5 20.5q0 5 2 11l83 202l-163 403q-2 6 -2 11q0 12 8.5 20.5t20.5 8.5q20 0 28 -18l139 -357l140 357q3 8 11 13t16 5q12 0 21 -8.5t9 -20.5zM367 627q0 -18 -13 -31t-31 -13t-31 13t-13 31
q0 19 12.5 31.5t31.5 12.5t31.5 -12.5t12.5 -31.5zM197 627q0 -18 -13 -31t-31 -13t-31 13t-13 31q0 19 12.5 31.5t31.5 12.5t31.5 -12.5t12.5 -31.5z" />
    <glyph glyph-name="Ydieresis" unicode="&#x178;" horiz-adv-x="588" 
d="M566 730q0 -9 -4 -14l-229 -410v-277q0 -12 -8.5 -20.5t-20.5 -8.5t-20.5 8.5t-8.5 20.5v277l-229 410q-4 5 -4 14q0 12 8.5 20.5t20.5 8.5q18 0 26 -15l207 -370l207 370q8 15 26 15q12 0 20.5 -8.5t8.5 -20.5zM433 858q0 -18 -13 -31t-31 -13t-31 13t-13 31
q0 19 12.5 31.5t31.5 12.5t31.5 -12.5t12.5 -31.5zM263 858q0 -18 -13 -31t-31 -13t-31 13t-13 31q0 19 12.5 31.5t31.5 12.5t31.5 -12.5t12.5 -31.5z" />
    <glyph glyph-name="fraction" unicode="&#x2044;" horiz-adv-x="454" 
d="M442 726l-375 -936q-8 -18 -28 -18q-3 0 -11 2q-11 5 -16 16t0 22l375 936q5 11 16 16t22 0t16.5 -16t0.5 -22z" />
    <glyph glyph-name="Euro" unicode="&#x20ac;" horiz-adv-x="754" 
d="M636 300q0 -12 -8.5 -20.5t-20.5 -8.5h-397q17 -47 47 -85.5t70 -67t87.5 -44t100.5 -15.5h156q12 0 20.5 -9t8.5 -21t-8.5 -20.5t-20.5 -8.5h-156q-65 0 -123.5 20.5t-106.5 56.5t-83.5 85.5t-53.5 108.5h-65q-12 0 -20.5 8.5t-8.5 20.5q0 13 8.5 21.5t20.5 8.5h52
q-2 13 -3 26.5t-1 27.5t1 27t3 26h-52q-12 0 -20.5 8.5t-8.5 21.5q0 12 8.5 20.5t20.5 8.5h65q18 59 53.5 108.5t83.5 85.5t106.5 56.5t123.5 20.5h156q12 0 20.5 -8.5t8.5 -20.5t-8.5 -21t-20.5 -9h-156q-53 0 -100.5 -15.5t-87.5 -44t-70 -67.5t-47 -85h397
q12 0 20.5 -8.5t8.5 -20.5q0 -13 -8.5 -21.5t-20.5 -8.5h-413q-2 -13 -3 -26t-1 -27t1 -27.5t3 -26.5h413q12 0 20.5 -8.5t8.5 -21.5z" />
    <glyph glyph-name="guilsinglleft" unicode="&#x2039;" horiz-adv-x="505" 
d="M451 14q-8 -14 -25 -14q-8 0 -15 5l-338 213q-14 8 -14 25q0 16 14 25l338 213q10 6 21.5 3.5t18.5 -13.5q7 -10 4.5 -21.5t-13.5 -18.5l-298 -188l298 -189q11 -6 13.5 -17.5t-4.5 -22.5z" />
    <glyph glyph-name="guilsinglright" unicode="&#x203a;" horiz-adv-x="505" 
d="M451 243q0 -16 -14 -25l-338 -213q-8 -5 -15 -5q-17 0 -25 14q-7 11 -4.5 22.5t13.5 17.5l298 189l-298 188q-11 7 -13.5 18.5t4.5 21.5q6 11 17.5 13.5t22.5 -3.5l338 -213q6 -5 10 -11t4 -14z" />
    <glyph glyph-name="daggerdbl" unicode="&#x2021;" horiz-adv-x="331" 
d="M321 243q0 -12 -9 -21t-21 -9h-96v-297q0 -12 -9 -21t-21 -9t-20.5 9t-8.5 21v297h-97q-12 0 -20.5 9t-8.5 21t8.5 20.5t20.5 8.5h97v154h-97q-12 0 -20.5 8.5t-8.5 20.5q0 13 8.5 21.5t20.5 8.5h97v260q0 12 8.5 20.5t20.5 8.5t21 -8.5t9 -20.5v-260h96q12 0 21 -8.5
t9 -21.5q0 -12 -9 -20.5t-21 -8.5h-96v-154h96q12 0 21 -8.5t9 -20.5z" />
    <glyph glyph-name="periodcentered" unicode="&#xb7;" horiz-adv-x="170" 
d="M223 361q0 -32 -23 -55t-55 -23t-55 23t-23 55q0 33 22.5 55t55.5 22q32 0 55 -22t23 -55z" />
    <glyph glyph-name="quotesinglbase" unicode="&#x201a;" horiz-adv-x="166" 
d="M121 -11q0 -30 -13.5 -57t-38.5 -46q-9 -6 -19 -6q-12 0 -20 8t-8 20q0 14 11 23q14 14 21.5 26t7.5 32v13q-14 5 -22 16.5t-8 25.5q0 19 13 31t31 12q23 0 34 -14.5t11 -35.5v-48z" />
    <glyph glyph-name="quotedblbase" unicode="&#x201e;" horiz-adv-x="295" 
d="M250 -13q0 -31 -13.5 -57.5t-38.5 -45.5q-9 -7 -18 -7q-12 0 -20.5 8.5t-8.5 20.5q0 8 3 13t8 10q14 14 22 26t8 32v13q-14 5 -22 16t-8 25q0 19 12.5 31.5t31.5 12.5q22 0 33 -14.5t11 -35.5v-48zM121 -13q0 -31 -13.5 -57.5t-38.5 -45.5q-11 -7 -19 -7q-12 0 -20 8.5
t-8 20.5q0 8 3 13t8 10q14 14 21.5 26t7.5 32v13q-14 5 -22 16t-8 25q0 19 13 31.5t31 12.5q23 0 34 -14.5t11 -35.5v-48z" />
    <glyph glyph-name="perthousand" unicode="&#x2030;" horiz-adv-x="814" 
d="M278 651q0 -26 -9.5 -48t-26.5 -39t-39.5 -26.5t-47.5 -9.5q-26 0 -48 9.5t-39 26.5t-26.5 39t-9.5 48q0 25 9.5 47.5t26.5 39.5t39 26.5t48 9.5q25 0 47.5 -9.5t39.5 -26.5t26.5 -39.5t9.5 -47.5zM225 651q0 29 -20.5 49.5t-49.5 20.5t-49.5 -20.5t-20.5 -49.5
t20.5 -49.5t49.5 -20.5t49.5 20.5t20.5 49.5zM804 123q0 -26 -9.5 -48t-26.5 -39t-39.5 -26.5t-47.5 -9.5q-26 0 -48 9.5t-39 26.5t-26.5 39t-9.5 48q0 25 9.5 47.5t26.5 39.5t39 26.5t48 9.5q25 0 47.5 -9.5t39.5 -26.5t26.5 -39.5t9.5 -47.5zM751 123q0 29 -20.5 49.5
t-49.5 20.5t-49.5 -20.5t-20.5 -49.5t20.5 -49.5t49.5 -20.5t49.5 20.5t20.5 49.5zM436 737q0 -5 -2 -11l-284 -708q-8 -18 -28 -18q-12 0 -20.5 8.5t-8.5 20.5q0 5 2 11l284 708q8 18 27 18q13 0 21.5 -8.5t8.5 -20.5zM519 123q0 -26 -9.5 -48t-26.5 -39t-39.5 -26.5
t-47.5 -9.5q-26 0 -48 9.5t-39 26.5t-26.5 39t-9.5 48q0 25 9.5 47.5t26.5 39.5t39 26.5t48 9.5q25 0 47.5 -9.5t39.5 -26.5t26.5 -39.5t9.5 -47.5zM466 123q0 29 -20.5 49.5t-49.5 20.5t-49.5 -20.5t-20.5 -49.5t20.5 -49.5t49.5 -20.5t49.5 20.5t20.5 49.5z" />
    <glyph glyph-name="Acircumflex" unicode="&#xc2;" horiz-adv-x="725" 
d="M703 41q5 -11 0 -22.5t-16 -16.5q-3 -1 -5.5 -1.5t-5.5 -0.5q-20 0 -27 18l-83 195h-382l-84 -195q-5 -11 -16 -16t-22 0t-16 16.5t0 22.5l91 213l211 494q7 18 27 18q19 0 27 -18l210 -494zM541 272l-166 390l-166 -390h332zM492 838q0 -11 -7 -18.5t-18 -7.5
q-9 0 -18 7l-76 79l-76 -79q-9 -7 -18 -7q-11 0 -18 7.5t-7 18.5q0 9 7 18l94 97q9 7 18 7t18 -7l94 -97q7 -9 7 -18z" />
    <glyph glyph-name="Ecircumflex" unicode="&#xca;" horiz-adv-x="556" 
d="M521 29q0 -12 -8.5 -20.5t-21.5 -8.5h-344q-13 0 -21.5 8.5t-8.5 20.5v2v2v697q0 12 8.5 20.5t21.5 8.5h344q13 0 21.5 -8.5t8.5 -20.5t-8.5 -20.5t-21.5 -8.5h-315v-285h268q12 0 20.5 -8.5t8.5 -20.5t-8.5 -20.5t-20.5 -8.5h-268v-299h315q13 0 21.5 -8.5t8.5 -21.5z
M448 838q0 -11 -7 -18.5t-18 -7.5q-9 0 -18 7l-76 79l-76 -79q-9 -7 -18 -7q-11 0 -18 7.5t-7 18.5q0 9 7 18l94 97q9 7 18 7t18 -7l94 -97q7 -9 7 -18z" />
    <glyph glyph-name="Aacute" unicode="&#xc1;" horiz-adv-x="725" 
d="M703 41q5 -11 0 -22.5t-16 -16.5q-3 -1 -5.5 -1.5t-5.5 -0.5q-20 0 -27 18l-83 195h-382l-84 -195q-5 -11 -16 -16t-22 0t-16 16.5t0 22.5l91 213l211 494q7 18 27 18q19 0 27 -18l210 -494zM541 272l-166 390l-166 -390h332zM331.979 829q0 -12 8.5 -20.5
q8.49902 -8.5 20.498 -8.5q11 0 20.999 8l88.9951 90q8.99902 9 8.99902 21t-8.49902 20.5q-8.5 8.5 -20.499 8.5q-11 0 -20.999 -8l-89.9941 -90q-8 -10 -8 -21z" />
    <glyph glyph-name="Edieresis" unicode="&#xcb;" horiz-adv-x="556" 
d="M521 29q0 -12 -8.5 -20.5t-21.5 -8.5h-344q-13 0 -21.5 8.5t-8.5 20.5v2v2v697q0 12 8.5 20.5t21.5 8.5h344q13 0 21.5 -8.5t8.5 -20.5t-8.5 -20.5t-21.5 -8.5h-315v-285h268q12 0 20.5 -8.5t8.5 -20.5t-8.5 -20.5t-20.5 -8.5h-268v-299h315q13 0 21.5 -8.5t8.5 -21.5z
M467 858q0 -18 -13 -31t-31 -13t-31 13t-13 31q0 19 12.5 31.5t31.5 12.5t31.5 -12.5t12.5 -31.5zM297 858q0 -18 -13 -31t-31 -13t-31 13t-13 31q0 19 12.5 31.5t31.5 12.5t31.5 -12.5t12.5 -31.5z" />
    <glyph glyph-name="Egrave" unicode="&#xc8;" horiz-adv-x="556" 
d="M521 29q0 -12 -8.5 -20.5t-21.5 -8.5h-344q-13 0 -21.5 8.5t-8.5 20.5v2v2v697q0 12 8.5 20.5t21.5 8.5h344q13 0 21.5 -8.5t8.5 -20.5t-8.5 -20.5t-21.5 -8.5h-315v-285h268q12 0 20.5 -8.5t8.5 -20.5t-8.5 -20.5t-20.5 -8.5h-268v-299h315q13 0 21.5 -8.5t8.5 -21.5z
M359 829q0 -12 -8.5 -20.5t-20.5 -8.5q-11 0 -21 8l-89 90q-9 9 -9 21t8.5 20.5t20.5 8.5q11 0 21 -8l90 -90q8 -10 8 -21z" />
    <glyph glyph-name="Iacute" unicode="&#xcd;" horiz-adv-x="246" 
d="M176 29q0 -12 -8.5 -20.5t-20.5 -8.5q-13 0 -21.5 8.5t-8.5 20.5v701q0 12 8.5 20.5t21.5 8.5q12 0 20.5 -8.5t8.5 -20.5v-701zM96.9941 829q0 -12 8.49902 -20.5q8.5 -8.5 20.499 -8.5q10.999 0 20.999 8l88.9941 90q9 9 9 21t-8.5 20.5q-8.49902 8.5 -20.499 8.5
q-10.999 0 -20.998 -8l-89.9951 -90q-7.99902 -10 -7.99902 -21z" />
    <glyph glyph-name="Icircumflex" unicode="&#xce;" horiz-adv-x="237" 
d="M166 29q0 -12 -8.5 -20.5t-20.5 -8.5q-13 0 -21.5 8.5t-8.5 20.5v701q0 12 8.5 20.5t21.5 8.5q12 0 20.5 -8.5t8.5 -20.5v-701zM248 838q0 -11 -7 -18.5t-18 -7.5q-9 0 -18 7l-76 79l-76 -79q-9 -7 -18 -7q-11 0 -18 7.5t-7 18.5q0 9 7 18l94 97q9 7 18 7t18 -7l94 -97
q7 -9 7 -18z" />
    <glyph glyph-name="Idieresis" unicode="&#xcf;" horiz-adv-x="235" 
d="M165 29q0 -12 -8.5 -20.5t-20.5 -8.5q-13 0 -21.5 8.5t-8.5 20.5v701q0 12 8.5 20.5t21.5 8.5q12 0 20.5 -8.5t8.5 -20.5v-701zM257 858q0 -18 -13 -31t-31 -13t-31 13t-13 31q0 19 12.5 31.5t31.5 12.5t31.5 -12.5t12.5 -31.5zM87 858q0 -18 -13 -31t-31 -13t-31 13
t-13 31q0 19 12.5 31.5t31.5 12.5t31.5 -12.5t12.5 -31.5z" />
    <glyph glyph-name="Igrave" unicode="&#xcc;" horiz-adv-x="246" 
d="M166 29q0 -12 -8.5 -20.5t-20.5 -8.5q-13 0 -21.5 8.5t-8.5 20.5v701q0 12 8.5 20.5t21.5 8.5q12 0 20.5 -8.5t8.5 -20.5v-701zM159 829q0 -12 -8.5 -20.5t-20.5 -8.5q-11 0 -21 8l-89 90q-9 9 -9 21t8.5 20.5t20.5 8.5q11 0 21 -8l90 -90q8 -10 8 -21z" />
    <glyph glyph-name="Oacute" unicode="&#xd3;" horiz-adv-x="912" 
d="M425.974 829q0 -12 8.5 -20.5q8.49902 -8.5 20.499 -8.5q10.999 0 20.998 8l88.9951 90q8.99902 9 8.99902 21t-8.49902 20.5q-8.5 8.5 -20.499 8.5q-10.999 0 -20.999 -8l-89.9941 -90q-8 -10 -8 -21zM845 380q0 -79 -30 -148t-81.5 -120.5t-120.5 -81.5t-147 -30
q-79 0 -148 30t-120.5 81.5t-81.5 120.5t-30 148q0 78 30 147t81.5 120.5t120.5 81.5t148 30q78 0 147 -30t120.5 -81.5t81.5 -120.5t30 -147zM787 380q0 66 -25.5 124.5t-69 102t-102 69t-124.5 25.5t-125 -25.5t-102.5 -69t-69 -102t-25.5 -124.5q0 -67 25.5 -125.5
t69 -102t102.5 -69t125 -25.5t124.5 25.5t102 69t69 102t25.5 125.5z" />
    <glyph glyph-name="Ocircumflex" unicode="&#xd4;" horiz-adv-x="912" 
d="M585 838q0 -11 -7 -18.5t-18 -7.5q-9 0 -18 7l-76 79l-76 -79q-9 -7 -18 -7q-11 0 -18 7.5t-7 18.5q0 9 7 18l94 97q9 7 18 7t18 -7l94 -97q7 -9 7 -18zM845 380q0 -79 -30 -148t-81.5 -120.5t-120.5 -81.5t-147 -30q-79 0 -148 30t-120.5 81.5t-81.5 120.5t-30 148
q0 78 30 147t81.5 120.5t120.5 81.5t148 30q78 0 147 -30t120.5 -81.5t81.5 -120.5t30 -147zM787 380q0 66 -25.5 124.5t-69 102t-102 69t-124.5 25.5t-125 -25.5t-102.5 -69t-69 -102t-25.5 -124.5q0 -67 25.5 -125.5t69 -102t102.5 -69t125 -25.5t124.5 25.5t102 69
t69 102t25.5 125.5z" />
    <glyph glyph-name="Ograve" unicode="&#xd2;" horiz-adv-x="912" 
d="M492 829q0 -12 -8.5 -20.5t-20.5 -8.5q-11 0 -21 8l-89 90q-9 9 -9 21t8.5 20.5t20.5 8.5q11 0 21 -8l90 -90q8 -10 8 -21zM845 380q0 -79 -30 -148t-81.5 -120.5t-120.5 -81.5t-147 -30q-79 0 -148 30t-120.5 81.5t-81.5 120.5t-30 148q0 78 30 147t81.5 120.5
t120.5 81.5t148 30q78 0 147 -30t120.5 -81.5t81.5 -120.5t30 -147zM787 380q0 66 -25.5 124.5t-69 102t-102 69t-124.5 25.5t-125 -25.5t-102.5 -69t-69 -102t-25.5 -124.5q0 -67 25.5 -125.5t69 -102t102.5 -69t125 -25.5t124.5 25.5t102 69t69 102t25.5 125.5z" />
    <glyph glyph-name="Uacute" unicode="&#xda;" horiz-adv-x="775" 
d="M696 289q0 -60 -23 -112.5t-62 -91.5t-92 -62t-113 -23t-112.5 23t-91.5 62t-62 91.5t-23 112.5v441q0 12 8.5 20.5t21.5 8.5q12 0 20.5 -8.5t8.5 -20.5v-441q0 -48 18 -89.5t49.5 -73t73 -49.5t89.5 -18t90 18t73.5 49.5t49.5 73t18 89.5v441q0 12 8.5 20.5t20.5 8.5
t21 -8.5t9 -20.5v-441zM337.979 829q0 -12 8.49902 -20.5q8.5 -8.5 20.499 -8.5q10.999 0 20.999 8l88.9941 90q9 9 9 21t-8.5 20.5q-8.49902 8.5 -20.499 8.5q-10.999 0 -20.998 -8l-89.9951 -90q-7.99902 -10 -7.99902 -21z" />
    <glyph glyph-name="Ucircumflex" unicode="&#xdb;" horiz-adv-x="775" 
d="M696 289q0 -60 -23 -112.5t-62 -91.5t-92 -62t-113 -23t-112.5 23t-91.5 62t-62 91.5t-23 112.5v441q0 12 8.5 20.5t21.5 8.5q12 0 20.5 -8.5t8.5 -20.5v-441q0 -48 18 -89.5t49.5 -73t73 -49.5t89.5 -18t90 18t73.5 49.5t49.5 73t18 89.5v441q0 12 8.5 20.5t20.5 8.5
t21 -8.5t9 -20.5v-441zM516 838q0 -11 -7 -18.5t-18 -7.5q-9 0 -18 7l-76 79l-76 -79q-9 -7 -18 -7q-11 0 -18 7.5t-7 18.5q0 9 7 18l94 97q9 7 18 7t18 -7l94 -97q7 -9 7 -18z" />
    <glyph glyph-name="Ugrave" unicode="&#xd9;" horiz-adv-x="775" 
d="M696 289q0 -60 -23 -112.5t-62 -91.5t-92 -62t-113 -23t-112.5 23t-91.5 62t-62 91.5t-23 112.5v441q0 12 8.5 20.5t21.5 8.5q12 0 20.5 -8.5t8.5 -20.5v-441q0 -48 18 -89.5t49.5 -73t73 -49.5t89.5 -18t90 18t73.5 49.5t49.5 73t18 89.5v441q0 12 8.5 20.5t20.5 8.5
t21 -8.5t9 -20.5v-441zM450 829q0 -12 -8.5 -20.5t-20.5 -8.5q-11 0 -21 8l-89 90q-9 9 -9 21t8.5 20.5t20.5 8.5q11 0 21 -8l90 -90q8 -10 8 -21z" />
    <glyph glyph-name="dotlessi" unicode="&#x131;" horiz-adv-x="287" 
d="M173 29q0 -12 -8.5 -20.5t-20.5 -8.5t-21 8.5t-9 20.5v427q0 12 9 20.5t21 8.5t20.5 -8.5t8.5 -20.5v-427z" />
    <glyph glyph-name="circumflex" unicode="&#x2c6;" horiz-adv-x="302" 
d="M270 652q0 -11 -7 -18.5t-18 -7.5q-9 0 -18 7l-76 79l-76 -79q-9 -7 -18 -7q-11 0 -18 7.5t-7 18.5q0 9 7 18l94 97q9 7 18 7t18 -7l94 -97q7 -9 7 -18z" />
    <glyph glyph-name="tilde" unicode="&#x2dc;" horiz-adv-x="556" 
d="M346 614q-19 0 -37 7t-34.5 15.5t-31 15.5t-25.5 7q-10 0 -16 -6t-12 -13.5t-12.5 -13.5t-17.5 -6q-13 0 -23 8.5t-10 22.5q0 8 5 16q14 22 35 38.5t48 16.5q19 0 36.5 -7t33 -15.5t30 -15.5t27.5 -7q10 0 15.5 5t10.5 10.5t11 10.5t17 5q12 0 22.5 -8.5t10.5 -22.5
q0 -10 -6 -17q-13 -20 -33 -33t-44 -13z" />
    <glyph glyph-name="ring" unicode="&#x2da;" horiz-adv-x="263" 
d="M231 674q0 -20 -7.5 -38t-21 -31.5t-31.5 -21.5t-39 -8t-39 8t-31.5 21.5t-21.5 31.5t-8 38q0 42 29 71t71 29t70.5 -29t28.5 -71zM188 674q0 24 -16.5 40.5t-39.5 16.5q-24 0 -40.5 -16.5t-16.5 -40.5q0 -23 16.5 -39.5t40.5 -16.5q23 0 39.5 16.5t16.5 39.5z" />
    <glyph glyph-name="cedilla" unicode="&#xb8;" horiz-adv-x="1107" 
d="M590 -82q0 -26 -10.5 -40.5t-27 -21.5t-36.5 -8.5t-40 -1.5q-14 0 -24 4t-10 21t13 20.5t26 3.5q9 0 18 -0.5t18 -0.5t20.5 2.5t11.5 15.5q0 11 -10.5 13t-18.5 2q-9 0 -17.5 -1.5t-17.5 -1.5q-25 0 -25 23q0 7 3.5 18.5t9 23.5t10.5 23t8 18q2 9 9 14.5t16 5.5
q11 0 18 -7t7 -18q0 -4 -2.5 -11t-5.5 -14l-6 -14t-5 -11q28 -2 48 -14t20 -43z" />
    <glyph glyph-name="hungarumlaut" unicode="&#x2dd;" horiz-adv-x="363" 
d="M192 745q0 -11 -8 -21l-90 -90q-10 -8 -21 -8q-12 0 -20.5 8.5t-8.5 20.5t9 21l89 90q10 8 21 8q12 0 20.5 -8.5t8.5 -20.5zM343 745q0 -11 -8 -21l-90 -90q-10 -8 -21 -8q-12 0 -20.5 8.5t-8.5 20.5t9 21l89 90q10 8 21 8q12 0 20.5 -8.5t8.5 -20.5z" />
    <glyph glyph-name="caron" unicode="&#x2c7;" horiz-adv-x="302" 
d="M270 748q0 -9 -7 -18l-94 -97q-9 -7 -18 -7t-18 7l-94 97q-7 9 -7 18q0 11 7 18.5t18 7.5q10 0 18 -8l76 -78l76 78q8 8 18 8q11 0 18 -7.5t7 -18.5z" />
    <glyph glyph-name="Hanken" horiz-adv-x="908" 
d="M832 378q0 -78 -29.5 -147t-81 -120.5t-120.5 -81t-147 -29.5t-147 29.5t-120.5 81t-81 120.5t-29.5 147t29.5 147t81 120.5t120.5 81t147 29.5t147 -29.5t120.5 -81t81 -120.5t29.5 -147zM798 378q0 71 -27 133.5t-73.5 109t-109.5 73.5t-134 27t-133.5 -27t-109 -73.5
t-73.5 -109t-27 -133.5t27 -133.5t73.5 -109t109 -73.5t133.5 -27t134 27t109.5 73.5t73.5 109t27 133.5zM663 235q-5 -5 -12 -5t-12 5l-132 131q-5 5 -5 12t5 12l132 131q3 4 5.5 4.5t7.5 0.5h2q3 -1 4 -1.5t2 -0.5l3 -3q5 -5 5 -12t-5 -12l-119 -119l119 -119q5 -5 5 -12
t-5 -12zM472 247q0 -8 -5 -12.5t-13 -4.5q-7 0 -12 4.5t-5 12.5v262q0 8 5 13t12 5q8 0 13 -5t5 -13v-262zM406 378q0 -8 -5 -12.5t-12 -4.5h-66q-17 0 -17 17t17 17h66q7 0 12 -4.5t5 -12.5zM275 247q0 -8 -5 -12.5t-13 -4.5q-7 0 -12 4.5t-5 12.5v262q0 8 5 13t12 5
q8 0 13 -5t5 -13v-262z" />
    </font>
</defs>
</svg>
