<?xml version="1.0" standalone="no"?>
<!DOCTYPE svg PUBLIC "-//W3C//DTD SVG 1.1//EN" "http://www.w3.org/Graphics/SVG/1.1/DTD/svg11.dtd" >
<svg xmlns="http://www.w3.org/2000/svg" xmlns:xlink="http://www.w3.org/1999/xlink" version="1.1">
<metadata>
Created by FontForge 20161116 at Sun Dec  7 11:59:31 2014
 By Jimmy Wärting
Copyright (c) 2014 by Hanken Design Co.. All rights reserved.
</metadata>
<defs>
<font id="Hanken-Book" horiz-adv-x="637" >
  <font-face 
    font-family="Hanken"
    font-weight="400"
    font-stretch="normal"
    units-per-em="1000"
    panose-1="0 0 0 0 0 0 0 0 0 0"
    ascent="800"
    descent="-200"
    x-height="496"
    cap-height="774"
    bbox="-93 -243 1141 995"
    underline-thickness="60"
    underline-position="-180"
    unicode-range="U+000D-25CA"
  />
<missing-glyph horiz-adv-x="500" 
d="M63 0v759h375v-759h-375v0zM125 63h250v634h-250v-634v0z" />
    <glyph glyph-name=".notdef" horiz-adv-x="500" 
d="M63 0v759h375v-759h-375v0zM125 63h250v634h-250v-634v0z" />
    <glyph glyph-name="NULL" horiz-adv-x="0" 
 />
    <glyph glyph-name="NULL" horiz-adv-x="0" 
 />
    <glyph glyph-name="nonmarkingreturn" unicode="&#xd;" horiz-adv-x="0" 
 />
    <glyph glyph-name="space" unicode=" " horiz-adv-x="351" 
 />
    <glyph glyph-name="Eth" unicode="&#xd0;" horiz-adv-x="784" 
d="M373 -15h-246q-12 0 -23 7t-16 18q-9 16 -2 36v292h-25q-18 0 -31 13t-13 32q0 18 13 31t31 13h25v303q0 18 13 31t32 13h241q79 0 144 -34t111 -89t71 -125t25 -142q0 -89 -30.5 -162.5t-80 -126t-112.5 -81.5t-127 -29zM372 686h-197v-259h237q18 0 31 -13t13 -31
q0 -19 -13 -32t-31 -13h-237v-265h198q57 0 104.5 27.5t82.5 71.5t54.5 100t19.5 112q0 57 -19 111.5t-53.5 97t-83 68t-106.5 25.5z" />
    <glyph glyph-name="eth" unicode="&#xf0;" 
d="M587 539h-33v-510q0 -18 -13 -31t-31 -13q-19 0 -32 13t-13 31v19q-35 -30 -78 -46.5t-90 -16.5q-53 0 -100 20.5t-82 55.5t-55.5 81.5t-20.5 99.5t20.5 100t55.5 82t82 55.5t100 20.5q47 0 90 -16.5t78 -47.5v103h-228q-19 0 -32 12.5t-13 31.5t13 31.5t32 12.5h228v110
q0 18 13 31t32 13q18 0 31 -13t13 -31v-110h33q19 0 31.5 -12.5t12.5 -31.5t-12.5 -31.5t-31.5 -12.5zM297 411q-35 0 -65.5 -13.5t-53.5 -36.5t-36.5 -53.5t-13.5 -65.5t13.5 -65.5t36.5 -53t53.5 -36t65.5 -13.5q34 0 65 13.5t53.5 36t36 53t13.5 65.5t-13.5 65.5
t-36 53.5t-53.5 36.5t-65 13.5z" />
    <glyph glyph-name="Lslash" unicode="&#x141;" horiz-adv-x="434" 
d="M394 -15h-267q-18 0 -31 13t-13 31v261l-24 -14q-16 -9 -33.5 -4.5t-27.5 21.5q-9 16 -4.5 33.5t21.5 26.5l68 40v337q0 19 13 31.5t31 12.5q19 0 31.5 -12.5t12.5 -31.5v-286l84 49q16 10 33.5 5t26.5 -21q10 -16 5 -33.5t-21 -27.5l-128 -75v-268h223q19 0 32 -13
t13 -31t-13 -31t-32 -13z" />
    <glyph glyph-name="lslash" unicode="&#x142;" horiz-adv-x="255" 
d="M251 388l-80 -47v-312q0 -18 -13 -31t-31 -13t-31 13t-13 31v261l-24 -14q-16 -9 -33.5 -4.5t-27.5 21.5q-9 16 -4.5 33.5t21.5 26.5l68 40v337q0 18 13 31t31 13t31 -13t13 -31v-286l36 20q16 10 33.5 5t27.5 -21q9 -16 4.5 -33.5t-21.5 -26.5z" />
    <glyph glyph-name="Scaron" unicode="&#x160;" horiz-adv-x="565" 
d="M292 -15q-46 0 -86 17.5t-70 47.5t-47.5 70t-17.5 86q0 19 13 32t32 13q18 0 31 -13t13 -32q0 -27 10.5 -51t28.5 -42t42 -28.5t51 -10.5t51.5 10.5t42.5 28.5t28.5 42t10.5 51q0 33 -13 54.5t-36 37.5q-11 8 -25 14.5t-29 13.5q-15 6 -31 12t-33 12q-33 12 -66.5 27
t-60 37.5t-43.5 56t-17 82.5q0 46 17.5 86t47.5 70t70 47.5t86 17.5t86.5 -17.5t70.5 -47.5t47.5 -70t17.5 -86q0 -18 -13 -31t-32 -13q-18 0 -31 13t-13 31q0 27 -10.5 51.5t-28.5 42.5t-42.5 28.5t-51.5 10.5t-51 -10.5t-42 -28.5t-28.5 -42.5t-10.5 -51.5q0 -30 12.5 -50
t35.5 -35q24 -15 54 -27l32 -12t33 -12q33 -12 66.5 -27.5t60 -39t43.5 -58.5t17 -86q0 -46 -17.5 -86t-47.5 -70t-70.5 -47.5t-86.5 -17.5zM292 809q-18 0 -28 12l-94 96q-12 12 -12 29t11.5 29t28.5 12t29 -12l65 -67l65 67q12 12 29 12t28.5 -12t11.5 -29q0 -16 -11 -29
l-94 -96q-12 -12 -29 -12z" />
    <glyph glyph-name="scaron" unicode="&#x161;" horiz-adv-x="437" 
d="M221 -15q-30 0 -60.5 10t-55 29t-40 47t-15.5 63q0 18 13 31t31 13q19 0 32 -13t13 -31q0 -29 25 -44.5t57 -15.5q35 0 53.5 14.5t18.5 47.5q0 20 -7.5 32t-21.5 21q-8 5 -16.5 8.5t-18.5 7.5t-20.5 7t-21.5 7q-22 7 -44.5 16.5t-41 24.5t-30 38t-11.5 58q0 32 12 58.5
t33 45.5t48.5 29.5t57.5 10.5t57.5 -10.5t48 -29.5t33 -45.5t12.5 -58.5q0 -18 -13 -31t-32 -13q-18 0 -31 13t-13 31q0 25 -18 40t-44 15t-44 -15t-18 -40q0 -23 28 -37q16 -9 36 -15q10 -5 21 -8t22 -8q22 -8 44.5 -19.5t40.5 -29t29.5 -42.5t11.5 -61t-12.5 -64
t-34.5 -47.5t-51.5 -29.5t-62.5 -10zM229 534q-18 0 -28 12l-94 96q-12 12 -12 29t11.5 29t28.5 12t29 -12l65 -67l65 67q12 12 29 12t28.5 -12t11.5 -29q0 -16 -11 -29l-94 -96q-12 -12 -29 -12z" />
    <glyph glyph-name="Yacute" unicode="&#xdd;" horiz-adv-x="566" 
d="M564 708l-227 -406v-273q0 -18 -13 -31t-31 -13t-31 13t-13 31v273l-227 406q-6 10 -6 22q0 18 13 31t31 13q12 0 22.5 -6t16.5 -16l194 -347l194 347q6 10 16.5 16t22.5 6q18 0 31 -13t13 -31q0 -12 -6 -22zM256.984 795q18.999 0 30.998 13l89.9941 90q13 13 13 31
t-13 31q-12.999 13 -30.998 13t-30.998 -13l-89.9941 -90q-12.999 -12 -12.999 -31q0 -18 12.999 -31t30.998 -13z" />
    <glyph glyph-name="yacute" unicode="&#xfd;" horiz-adv-x="457" 
d="M446 439l-167 -414l-87 -212q-5 -13 -16 -20.5t-25 -7.5q-18 0 -31 13t-13 31q0 9 3 17l80 196l-160 397q-3 7 -3 17q0 18 13 31t31 13q14 0 25.5 -7.5t16.5 -20.5l125 -320l126 320q5 13 16 20.5t25 7.5q19 0 32 -13t13 -31q0 -10 -4 -17zM232.985 568
q18.999 0 30.999 13l89.9941 90q12.999 13 12.999 31t-12.999 31t-30.998 13t-30.998 -13l-89.9951 -90q-12.999 -12 -12.999 -31q0 -18 12.999 -31q13 -13 30.998 -13z" />
    <glyph glyph-name="Thorn" unicode="&#xde;" horiz-adv-x="543" 
d="M304 228h-132v-199q0 -18 -13 -31t-31 -13q-19 0 -32 13t-13 31v701q0 18 13 31t32 13q18 0 31 -13t13 -31v-60h132q46 0 86.5 -17.5t70.5 -47.5t47.5 -70t17.5 -86t-17.5 -86t-47.5 -70t-70.5 -47.5t-86.5 -17.5zM304 581h-132v-265h132q27 0 51.5 10.5t42.5 28.5
t28.5 42.5t10.5 51.5t-10.5 51t-28.5 42t-42.5 28.5t-51.5 10.5z" />
    <glyph glyph-name="thorn" unicode="&#xfe;" 
d="M341 -15q-48 0 -91 16.5t-78 46.5v-243q0 -19 -13 -32t-31 -13q-19 0 -32 13t-13 32v925q0 18 13 31t32 13q18 0 31 -13t13 -31v-293q35 30 78 46.5t91 16.5q53 0 100 -20.5t82 -55.5t55 -81.5t20 -99.5t-20 -100t-55 -82t-82 -55.5t-100 -20.5zM341 411q-35 0 -65.5 -13
t-53.5 -36t-36.5 -53.5t-13.5 -65.5t13.5 -65.5t36.5 -53.5t53.5 -36.5t65.5 -13.5t65.5 13.5t53.5 36.5t36 53.5t13 65.5t-13 65.5t-36 53.5t-53.5 36t-65.5 13z" />
    <glyph glyph-name="Zcaron" unicode="&#x17d;" horiz-adv-x="591" 
d="M496 -15h-425q-18 0 -31 13t-13 31q0 12 6 23l384 634h-346q-18 0 -31 13t-13 31t13 31t31 13h425q18 0 31 -13t13 -31q0 -13 -6 -23l-384 -633h346q18 0 31 -13t13 -32q0 -18 -13 -31t-31 -13zM296 809q-18 0 -28 12l-94 96q-12 12 -12 29t11.5 29t28.5 12t29 -12
l65 -67l65 67q12 12 29 12t28.5 -12t11.5 -29q0 -16 -11 -29l-94 -96q-12 -12 -29 -12z" />
    <glyph glyph-name="zcaron" unicode="&#x17e;" horiz-adv-x="492" 
d="M440 -15h-369q-18 0 -31 13t-13 31q0 16 11 29l305 353h-272q-18 0 -31 13t-13 31q0 19 13 32t31 13h369q19 0 32 -13t13 -31q0 -17 -11 -30l-305 -352h271q19 0 32 -13t13 -32q0 -18 -13 -31t-32 -13zM246 534q-18 0 -28 12l-94 96q-12 12 -12 29t11.5 29t28.5 12
t29 -12l65 -67l65 67q12 12 29 12t28.5 -12t11.5 -29q0 -16 -11 -29l-94 -96q-12 -12 -29 -12z" />
    <glyph glyph-name="brokenbar" unicode="&#xa6;" horiz-adv-x="255" 
d="M127 315q-18 0 -31 13t-13 31v378q0 19 13 31.5t31 12.5q19 0 31.5 -12.5t12.5 -31.5v-378q0 -18 -12.5 -31t-31.5 -13zM127 -241q-18 0 -31 13t-13 31v378q0 18 13 31t31 13q19 0 31.5 -13t12.5 -31v-378q0 -18 -12.5 -31t-31.5 -13z" />
    <glyph glyph-name="minus" unicode="&#x2212;" horiz-adv-x="533" 
d="M472 198h-411q-18 0 -31 13t-13 32q0 18 13 31t31 13h411q18 0 31 -13t13 -31q0 -19 -13 -32t-31 -13z" />
    <glyph glyph-name="multiply" unicode="&#xd7;" horiz-adv-x="552" 
d="M491 -15q-19 0 -31 13l-184 183l-183 -183q-13 -13 -32 -13q-18 0 -31 13t-13 31t13 32l183 183l-183 183q-13 14 -13 32t13 31q13 14 31 14t32 -14l183 -183l184 183q13 14 31 14t31 -14q14 -13 14 -31t-14 -32l-183 -183l183 -183q14 -14 14 -32t-14 -31
q-12 -13 -31 -13z" />
    <glyph glyph-name="exclam" unicode="!" horiz-adv-x="285" 
d="M142 173q-18 0 -31 13t-13 31v522q0 18 13 31t31 13q19 0 32 -13t13 -31v-522q0 -18 -13 -31t-32 -13zM184 2q-17 -17 -42 -17q-24 0 -41.5 17t-17.5 42t18 42q17 17 41.5 17t41.5 -17t17 -42t-17 -42z" />
    <glyph glyph-name="quotedbl" unicode="&#x22;" horiz-adv-x="213" 
d="M164 559q-18 0 -31 13t-13 31v127q0 18 13 31t31 13t31 -13t13 -31v-127q0 -18 -13 -31t-31 -13zM49 559q-18 0 -31 13t-13 31v127q0 18 13 31t31 13t31 -13t13 -31v-127q0 -18 -13 -31t-31 -13z" />
    <glyph glyph-name="numbersign" unicode="#" horiz-adv-x="836" 
d="M796 445h-157l-50 -124h121q19 0 32 -13t13 -31q0 -19 -13 -32t-32 -13h-157l-88 -219q-5 -14 -16.5 -21t-24.5 -7q-11 0 -21 5.5t-16 14t-7.5 19.5t3.5 22l75 186h-174l-89 -219q-5 -13 -16 -20.5t-25 -7.5q-23 0 -36.5 19t-4.5 42l75 186h-149q-18 0 -31 13t-13 32
q0 18 13 31t31 13h185l50 124h-149q-18 0 -31 13t-13 32q0 18 13 31t31 13h185l88 219q8 17 24.5 24.5t33.5 0.5t24.5 -24t0.5 -34l-75 -186h174l88 219q7 17 24 24.5t34 0.5t24 -24t0 -34l-75 -186h121q19 0 32 -13t13 -31q0 -19 -13 -32t-32 -13zM370 445l-50 -124h174
l50 124h-174z" />
    <glyph glyph-name="dollar" unicode="$" horiz-adv-x="565" 
d="M326 -11v-70q0 -18 -13 -31t-31 -13t-31 13t-13 31v70q-38 8 -70.5 28t-56 48.5t-37 64.5t-13.5 76q0 19 13 32t32 13q18 0 31 -13t13 -32q0 -43 25 -77t63 -48v271q-33 13 -65 30.5t-57 42.5t-40 58t-15 77q0 40 13.5 76t37 64.5t56 48.5t70.5 28v69q0 18 13 31t31 13
t31 -13t13 -31v-69q38 -8 70.5 -28t56.5 -48.5t37.5 -64.5t13.5 -76q0 -19 -13 -31.5t-32 -12.5q-18 0 -31 12.5t-13 31.5q0 43 -25 77t-64 48v-270q35 -13 67 -30t57 -41.5t39.5 -58t14.5 -79.5q0 -40 -13.5 -76t-37.5 -64.5t-56.5 -48.5t-70.5 -28zM238 685
q-38 -14 -63 -48t-25 -77q0 -42 25 -68.5t63 -43.5v237zM326 320v-239q39 14 64 48t25 77q0 47 -25 72t-64 42z" />
    <glyph glyph-name="percent" unicode="%" horiz-adv-x="547" 
d="M133 513q-29 0 -54 11t-43.5 29.5t-29.5 43.5t-11 54q0 28 11 53.5t29.5 44t43.5 29.5t54 11q28 0 53.5 -11t44 -29.5t29.5 -44t11 -53.5q0 -29 -11 -54t-29.5 -43.5t-44 -29.5t-53.5 -11zM445 720l-283 -707q-5 -13 -16.5 -20.5t-25.5 -7.5q-18 0 -31 13t-13 31
q0 9 3 17l284 707q5 13 16 20.5t25 7.5q19 0 32 -13t13 -31q0 -10 -4 -17zM414 -15q-29 0 -54 11t-43.5 29.5t-29.5 43.5t-11 54q0 28 11 53.5t29.5 44t43.5 29.5t54 11q28 0 53.5 -11t44 -29.5t29.5 -44t11 -53.5q0 -29 -11 -54t-29.5 -43.5t-44 -29.5t-53.5 -11zM133 706
q-23 0 -39 -16t-16 -39t16 -39t39 -16t39 16t16 39t-16 39t-39 16zM414 178q-23 0 -39 -16t-16 -39t16 -39t39 -16t39 16t16 39t-16 39t-39 16z" />
    <glyph glyph-name="ampersand" unicode="&#x26;" horiz-adv-x="738" 
d="M719 279l-110 -110l108 -107q13 -15 13 -32q0 -18 -13 -31t-32 -13t-31 13l-107 107q-22 -21 -44.5 -43t-47.5 -39q-28 -18 -60.5 -28.5t-76.5 -10.5q-53 0 -100 20t-82 55t-55 82t-20 100q0 44 10.5 76.5t28.5 60.5q17 25 39 47.5t44 44.5q-24 26 -37 56.5t-13 68.5
t14.5 72t39.5 59t59 39.5t72 14.5q39 0 72.5 -14.5t58.5 -39.5t39.5 -59t14.5 -72q0 -35 -14 -71t-40 -60q-13 -13 -31 -13q-19 0 -31.5 13t-12.5 32q0 8 2.5 14t5.5 11t7 9.5t8 9.5q7 10 12.5 23t5.5 32q0 40 -28 68t-69 28q-40 0 -68 -28t-28 -68q0 -24 8 -39.5t24 -31.5
q10 -12 23 -23l270 -270l109 109q12 13 32 13q18 0 31 -13t13 -31t-13 -31zM245 408l-31 -31q-29 -30 -46.5 -60t-17.5 -75q0 -35 13 -65.5t36 -53.5t53.5 -36t65.5 -13q45 0 75 17.5t60 46.5l31 31z" />
    <glyph glyph-name="quotesingle" unicode="'" horiz-adv-x="98" 
d="M49 559q-18 0 -31 13t-13 31v127q0 18 13 31t31 13t31 -13t13 -31v-127q0 -18 -13 -31t-31 -13z" />
    <glyph glyph-name="parenleft" unicode="(" horiz-adv-x="295" 
d="M233 -235q-11 -6 -22 -6q-25 0 -38 22q-67 115 -100.5 239t-33.5 249.5t33.5 249.5t100.5 239q9 16 26.5 20.5t33.5 -4.5q17 -10 21.5 -27.5t-5.5 -33.5q-61 -104 -91.5 -216.5t-30.5 -227t30.5 -227t91.5 -216.5q10 -16 5.5 -34t-21.5 -27z" />
    <glyph glyph-name="parenright" unicode=")" horiz-adv-x="295" 
d="M83 -241q-12 0 -22 6q-16 9 -20.5 27t4.5 34q61 104 91 216.5t30 227t-30 227t-91 216.5q-9 16 -4.5 33.5t20.5 27.5q16 9 33.5 4.5t27.5 -20.5q67 -115 100 -239t33 -249.5t-33 -249.5t-100 -239q-13 -22 -39 -22z" />
    <glyph glyph-name="asterisk" unicode="*" horiz-adv-x="311" 
d="M271 636l-45 -18l25 -50q7 -13 3.5 -26.5t-15.5 -21.5q-14 -9 -26 -5.5t-22.5 12.5t-19.5 20.5t-15 19.5l-35 -40q-5 -7 -12.5 -10t-15.5 -3q-20 0 -31.5 17.5t-1.5 36.5l25 50q-9 4 -22 8.5t-24.5 11t-18 17t-2.5 25.5q4 14 15.5 21.5t25.5 5.5l53 -7q1 10 2.5 24t5 27
t12 22t24.5 9t24 -9t12 -22t5 -27t2 -24l54 7q14 2 25 -5.5t15 -21.5t-2 -26.5t-20 -17.5z" />
    <glyph glyph-name="plus" unicode="+" horiz-adv-x="553" 
d="M521 213q-13 -13 -31 -13h-169v-170q0 -18 -13 -31t-32 -13q-18 0 -31 13t-13 31v170h-169q-19 0 -32 13t-13 31q0 19 13 31.5t32 12.5h169v170q0 18 13 31t31 13q19 0 32 -13t13 -31v-170h169q19 0 31.5 -12.5t12.5 -31.5q0 -18 -13 -31z" />
    <glyph glyph-name="comma" unicode="," horiz-adv-x="189" 
d="M101 -126q-14 -9 -28 -9q-18 0 -30.5 12.5t-12.5 30.5q0 12 4.5 20t11.5 14q14 13 19 22.5t5 24.5v4q-14 8 -22 21t-8 30q0 25 17.5 41.5t41.5 16.5q31 0 45.5 -20t14.5 -45v-48q0 -34 -15.5 -64t-42.5 -51z" />
    <glyph glyph-name="hyphen" unicode="-" horiz-adv-x="473" 
d="M412 198h-351q-18 0 -31 13t-13 32q0 18 13 31t31 13h351q18 0 31 -13t13 -31q0 -19 -13 -32t-31 -13z" />
    <glyph glyph-name="period" unicode="." horiz-adv-x="178" 
d="M89 -15q-24 0 -41.5 17.5t-17.5 41.5q0 25 17 41.5t42 16.5t42 -16.5t17 -41.5q0 -24 -17.5 -41.5t-41.5 -17.5z" />
    <glyph glyph-name="slash" unicode="/" horiz-adv-x="454" 
d="M81 -215q-5 -14 -16.5 -21t-25.5 -7q-23 0 -36.5 19t-4.5 42l375 935q7 17 24 24.5t34 0.5t24.5 -24t-0.5 -34z" />
    <glyph glyph-name="zero" unicode="0" horiz-adv-x="565" 
d="M282 -15q-46 0 -86 17.5t-70 47.5t-47.5 70t-17.5 86v354q0 46 17.5 86t47.5 70t70 47.5t86 17.5t86.5 -17.5t70.5 -47.5t47.5 -70t17.5 -86v-354q0 -46 -17.5 -86t-47.5 -70t-70.5 -47.5t-86.5 -17.5zM415 560q0 27 -10.5 51t-28.5 42t-42.5 28.5t-51.5 10.5t-51 -10.5
t-42 -28.5t-28.5 -42t-10.5 -51v-354q0 -27 10.5 -51t28.5 -42t42 -28.5t51 -10.5t51.5 10.5t42.5 28.5t28.5 42t10.5 51v354z" />
    <glyph glyph-name="one" unicode="1" horiz-adv-x="436" 
d="M354 -15h-262q-18 0 -31 13t-13 31q0 19 12.5 32t31.5 13h85v574l-70 -50q-15 -11 -33 -7.5t-29 18.5t-7.5 33t18.5 29l140 98q11 8 23 8.5t23 -4.5q24 -13 24 -40v-659h88q19 0 32 -13t13 -32q0 -18 -13 -31t-32 -13z" />
    <glyph glyph-name="two" unicode="2" horiz-adv-x="565" 
d="M489 -15h-384q-18 0 -31 13t-13 31q0 50 15.5 89.5t40.5 73.5q25 35 55.5 64.5t59.5 58.5l140 140q20 20 30.5 45.5t10.5 53.5t-10 52t-27.5 42t-41.5 28t-52 10q-27 0 -51 -10.5t-42 -28.5t-28.5 -42.5t-10.5 -51.5q0 -18 -13 -31t-31 -13q-19 0 -32 13t-13 31
q0 46 17.5 86t47.5 70t70.5 47.5t85.5 17.5q47 0 87 -17t69.5 -46.5t46 -70t16.5 -87.5q0 -45 -17 -86.5t-49 -73.5l-140 -140q-23 -23 -47 -44.5t-46 -45.5q-18 -20 -31 -42t-18 -47h336q18 0 31.5 -13t13.5 -32q0 -18 -13.5 -31t-31.5 -13z" />
    <glyph glyph-name="three" unicode="3" horiz-adv-x="565" 
d="M282 -15q-46 0 -86 17.5t-70 47.5t-47.5 70t-17.5 86q0 19 13 32t32 13q18 0 31 -13t13 -32q0 -27 10.5 -51t28.5 -42t42 -28.5t51 -10.5t51.5 10.5t42.5 28.5t28.5 42t10.5 51t-10.5 50t-28.5 40t-42 26.5t-52 9.5q-18 0 -31 13t-13 31q0 19 13 32t31 13q27 0 51.5 10.5
t42.5 28.5t28.5 42t10.5 51t-10.5 51.5t-28.5 42.5t-42.5 28.5t-51.5 10.5t-51 -10.5t-42 -28.5t-28.5 -42.5t-10.5 -51.5q0 -18 -13 -31t-31 -13q-19 0 -32 13t-13 31q0 46 17.5 86t47.5 70t70 47.5t86 17.5t86.5 -17.5t70.5 -47.5t47.5 -70t17.5 -86q0 -54 -24 -100
t-65 -77q40 -29 64.5 -72t24.5 -98q0 -46 -17.5 -86t-47.5 -70t-70.5 -47.5t-86.5 -17.5z" />
    <glyph glyph-name="four" unicode="4" horiz-adv-x="562" 
d="M478 288h-54v-259q0 -18 -13 -31t-31 -13q-19 0 -32 13t-13 31v259h-274q-18 0 -31.5 14t-13.5 32q0 5 1.5 10t5.5 10l293 404q6 8 16.5 15.5t24.5 7.5q17 0 30.5 -13.5t13.5 -30.5q0 -13 -7 -21l-250 -339h191v177q0 18 13 31t32 13q18 0 31 -13t13 -31v-177h54
q19 0 32 -13t13 -31q0 -19 -13 -32t-32 -13z" />
    <glyph glyph-name="five" unicode="5" horiz-adv-x="548" 
d="M283 -15q-46 0 -86.5 17.5t-70.5 47.5t-47.5 70.5t-17.5 86.5q0 19 13 32t32 13q18 0 31 -13t13 -32q0 -27 10.5 -51.5t28.5 -42.5t42.5 -28.5t51.5 -10.5q28 0 52.5 10.5t42.5 28.5t28.5 42.5t10.5 51.5q0 28 -10.5 52.5t-28.5 42.5t-42.5 28.5t-52.5 10.5h-147
q-19 0 -32 13t-13 31v345q0 18 13 31t32 13h325q19 0 32 -13t13 -31q0 -19 -13 -31.5t-32 -12.5h-281v-256h103q46 0 86.5 -17.5t71 -48t48 -71t17.5 -86.5t-17.5 -86.5t-48 -70.5t-71 -47.5t-86.5 -17.5z" />
    <glyph glyph-name="six" unicode="6" horiz-adv-x="543" 
d="M282 -15q-46 0 -86 17.5t-70 47.5t-47.5 70t-17.5 86v354q0 46 17.5 86t47.5 70t70 47.5t86 17.5t86.5 -17.5t70.5 -47.5t47.5 -70t17.5 -86q0 -19 -13 -31.5t-32 -12.5q-18 0 -31 12.5t-13 31.5q0 27 -10.5 51t-28.5 42t-42.5 28.5t-51.5 10.5t-51 -10.5t-42 -28.5
t-28.5 -42t-10.5 -51v-177q28 21 61.5 32.5t70.5 11.5q46 0 86.5 -17.5t70.5 -47.5t47.5 -70t17.5 -86t-17.5 -86t-47.5 -70t-70.5 -47.5t-86.5 -17.5zM282 339q-27 0 -51 -10.5t-42 -28.5t-28.5 -42.5t-10.5 -51.5t10.5 -51t28.5 -42t42 -28.5t51 -10.5t51.5 10.5
t42.5 28.5t28.5 42t10.5 51t-10.5 51.5t-28.5 42.5t-42.5 28.5t-51.5 10.5z" />
    <glyph glyph-name="seven" unicode="7" horiz-adv-x="502" 
d="M203 13q-5 -13 -16.5 -20.5t-24.5 -7.5q-23 0 -37 19t-5 42l255 640h-308q-19 0 -32 12.5t-13 31.5q0 18 13 31t32 13h373q24 0 37 -19t5 -41z" />
    <glyph glyph-name="eight" unicode="8" horiz-adv-x="565" 
d="M283 -15q-46 0 -86.5 17.5t-70.5 47.5t-47.5 70t-17.5 86q0 54 24 100.5t65 76.5q-41 29 -65 72t-24 98q0 46 17.5 86t47.5 70t70 47.5t86 17.5t86.5 -17.5t70.5 -47.5t47.5 -70t17.5 -86q0 -55 -24.5 -98t-64.5 -72q41 -30 65 -76t24 -101q0 -46 -17.5 -86t-47.5 -70
t-70 -47.5t-86 -17.5zM282 686q-27 0 -51 -10.5t-42 -28.5t-28.5 -42.5t-10.5 -51.5q0 -28 10.5 -51.5t28.5 -40.5t42 -26t52 -8q27 -1 51 8t42 26t28.5 40.5t10.5 51.5q0 27 -10.5 51.5t-28.5 42.5t-42 28.5t-52 10.5zM285 339h-3q-28 1 -52 -9.5t-42 -29t-28 -43
t-10 -51.5t10.5 -51t28.5 -42t42.5 -28.5t51.5 -10.5t51 10.5t42 28.5t28.5 42t10.5 51q0 28 -10.5 52.5t-28 43t-41 28.5t-50.5 9z" />
    <glyph glyph-name="nine" unicode="9" horiz-adv-x="543" 
d="M260 -15q-46 0 -86 17.5t-70 47.5t-47.5 70t-17.5 86q0 19 13 32t31 13q19 0 32 -13t13 -32q0 -27 10.5 -51t28.5 -42t42 -28.5t51 -10.5t51.5 10.5t42.5 28.5t28.5 42t10.5 51v170q-28 -21 -61.5 -32.5t-71.5 -11.5q-46 0 -86 17.5t-70 47.5t-47.5 70t-17.5 86t17.5 86
t47.5 70t70 47.5t86 17.5t86.5 -17.5t70.5 -47.5t47.5 -70t17.5 -86v-347q0 -46 -17.5 -86t-47.5 -70t-70.5 -47.5t-86.5 -17.5zM260 686q-27 0 -51 -10.5t-42 -28.5t-28.5 -42.5t-10.5 -51.5t10.5 -51t28.5 -42t42 -28.5t51 -10.5t51.5 10.5t42.5 28.5t28.5 42t10.5 51
t-10.5 51.5t-28.5 42.5t-42.5 28.5t-51.5 10.5z" />
    <glyph glyph-name="colon" unicode=":" horiz-adv-x="178" 
d="M89 411q-24 0 -41.5 17.5t-17.5 41.5q0 25 17 41.5t42 16.5t42 -16.5t17 -41.5q0 -24 -17.5 -41.5t-41.5 -17.5zM89 -15q-24 0 -41.5 17.5t-17.5 41.5q0 25 17 41.5t42 16.5t42 -16.5t17 -41.5q0 -24 -17.5 -41.5t-41.5 -17.5z" />
    <glyph glyph-name="semicolon" unicode=";" horiz-adv-x="189" 
d="M100 411q-24 0 -41.5 17.5t-17.5 41.5q0 25 17 41.5t42 16.5t42 -16.5t17 -41.5q0 -24 -17.5 -41.5t-41.5 -17.5zM101 -126q-14 -9 -28 -9q-18 0 -30.5 12.5t-12.5 30.5q0 12 4.5 20t11.5 14q14 13 19 22.5t5 24.5v4q-14 8 -22 21t-8 30q0 25 17.5 41.5t41.5 16.5
q31 0 45.5 -20t14.5 -45v-48q0 -34 -15.5 -64t-42.5 -51z" />
    <glyph glyph-name="less" unicode="&#x3c;" horiz-adv-x="505" 
d="M426 -15q-13 0 -23 7l-338 213q-21 13 -21 38q0 24 21 37l338 213q15 10 33 6t28 -20q10 -15 6 -33t-20 -28l-278 -175l278 -176q16 -10 20 -27.5t-6 -33.5q-15 -21 -38 -21z" />
    <glyph glyph-name="equal" unicode="=" horiz-adv-x="661" 
d="M578 309h-495q-18 0 -31 13t-13 31q0 19 13 32t31 13h495q19 0 31.5 -13t12.5 -32q0 -18 -12.5 -31t-31.5 -13zM578 95h-495q-18 0 -31 13t-13 31q0 19 13 32t31 13h495q19 0 31.5 -13t12.5 -32q0 -18 -12.5 -31t-31.5 -13z" />
    <glyph glyph-name="greater" unicode="&#x3e;" horiz-adv-x="505" 
d="M445 205l-338 -213q-10 -7 -23 -7q-25 0 -38 21q-10 16 -6 33.5t20 27.5l278 176l-278 175q-16 10 -20 28t6 33q10 16 27.5 20t33.5 -6l338 -213q21 -13 21 -37q0 -25 -21 -38z" />
    <glyph glyph-name="question" unicode="?" horiz-adv-x="594" 
d="M420 306q-17 -11 -33 -18q-22 -13 -34 -27.5t-12 -43.5q0 -18 -13 -31t-31 -13q-19 0 -32 13t-13 31q0 35 10.5 60.5t27.5 44t40 33t47 28.5q42 23 65.5 62t23.5 87q0 34 -13.5 65t-36.5 54t-54 36.5t-65 13.5q-35 0 -66 -13.5t-54 -36.5t-36 -53.5t-13 -65.5
q0 -19 -13 -32t-32 -13q-18 0 -31 13t-13 32q0 53 20 100t55 82t82 55t101 20q53 0 99.5 -20.5t81.5 -55.5t55.5 -81.5t20.5 -99.5q0 -72 -35.5 -131.5t-98.5 -94.5zM297 -15q-25 0 -42 17t-17 42t17 42t42 17t42 -17t17 -42t-17.5 -42t-41.5 -17z" />
    <glyph glyph-name="at" unicode="@" horiz-adv-x="593" 
d="M539 29q0 -12 -8.5 -20.5t-20.5 -8.5h-213q-50 0 -94.5 19t-77.5 52t-52 77t-19 94q0 51 19.5 96t55.5 80q37 35 82.5 52t96.5 15q49 -2 91 -22.5t73 -54t49 -78t18 -94.5q0 -24 -9 -45t-25 -37t-37 -25t-45 -9h-34q-20 0 -27 19q-30 -19 -65 -19q-26 0 -48 9.5t-39 26
t-26.5 39t-9.5 47.5t9.5 47.5t26.5 39.5t39 26.5t48 9.5q35 0 65 -19q7 19 27 19q13 0 21.5 -8.5t8.5 -21.5v-156h4q23 0 40 17t17 40q0 38 -13.5 72t-37 59.5t-55.5 41t-69 17.5q-79 3 -135 -51q-57 -54 -57 -133q0 -38 14.5 -71.5t39.5 -58t58.5 -39t71.5 -14.5h213
q12 0 20.5 -8.5t8.5 -21.5zM360 242q0 26 -18.5 45t-44.5 19t-45 -19t-19 -45t19 -44.5t45 -18.5t44.5 18.5t18.5 44.5z" />
    <glyph glyph-name="A" unicode="A" horiz-adv-x="725" 
d="M681 -11q-8 -4 -17 -4q-13 0 -24.5 7t-16.5 20l-79 186h-363l-79 -186q-7 -17 -24 -24t-34 1q-17 7 -24 24t1 34l90 213l211 494q5 13 16 20t25 7q13 0 24 -7t16 -20q76 -178 151 -353.5t151 -353.5q7 -17 0 -34t-24 -24zM363 623l-144 -336h287z" />
    <glyph glyph-name="B" unicode="B" 
d="M341 -15h-213q-19 0 -32 13t-13 31v701q0 18 13 31t32 13h146q38 0 72 -14.5t59 -39.5t39.5 -59t14.5 -72q0 -60 -36 -110q39 -13 71 -35.5t55 -53.5t36 -68.5t13 -79.5q0 -53 -20 -100t-55 -82t-82 -55t-100 -20zM274 686h-102v-193h112q16 0 31.5 8.5t27.5 22
t19.5 30.5t7.5 35q0 20 -7.5 37.5t-20.5 31t-30.5 21t-37.5 7.5zM341 404h-169v-330h169q35 0 65.5 13t53.5 36t36 53.5t13 65.5t-13.5 65t-36 51.5t-53.5 33.5t-65 12z" />
    <glyph glyph-name="C" unicode="C" horiz-adv-x="816" 
d="M460 -15q-83 0 -155.5 31.5t-126.5 85.5t-85.5 126.5t-31.5 155.5q0 82 31.5 153.5t85.5 124t126.5 82.5t155.5 30q80 0 152 -29.5t129 -86.5q14 -14 14 -32t-14 -31q-13 -13 -31 -13t-31 13q-45 45 -101 68t-118 23q-65 0 -121.5 -23.5t-98.5 -64t-66 -95.5t-24 -119
t24.5 -120.5t66.5 -98.5t98.5 -66.5t120.5 -24.5q62 0 118 23t101 67q13 14 31 14t31 -14q14 -13 14 -31t-14 -31q-57 -57 -129 -87t-152 -30z" />
    <glyph glyph-name="D" unicode="D" horiz-adv-x="784" 
d="M373 -15h-246q-12 0 -23 7t-16 18q-9 16 -2 36v684q0 18 13 31t32 13h241q79 0 144 -34t111 -89t71 -125t25 -142q0 -89 -30.5 -162.5t-80 -126t-112.5 -81.5t-127 -29zM372 686h-197v-613h198q57 0 104.5 27.5t82.5 71.5t54.5 100t19.5 112q0 57 -19 111.5t-53.5 97
t-83 68t-106.5 25.5z" />
    <glyph glyph-name="E" unicode="E" horiz-adv-x="542" 
d="M472 -15h-344q-19 0 -32 13t-13 31v2v2v697q0 18 13 31t32 13h344q19 0 32 -13t13 -31q0 -19 -13 -31.5t-32 -12.5h-300v-255h253q18 0 31 -12.5t13 -31.5q0 -18 -13 -31t-31 -13h-253v-269h300q19 0 32 -13t13 -32q0 -18 -13 -31t-32 -13z" />
    <glyph glyph-name="F" unicode="F" horiz-adv-x="512" 
d="M472 686h-300v-259h253q18 0 31 -13t13 -31q0 -19 -13 -31.5t-31 -12.5h-253v-310q0 -18 -13 -31t-31 -13q-19 0 -32 13t-13 31v701q0 18 13 31t32 13h344q19 0 32 -13t13 -31q0 -19 -13 -31.5t-32 -12.5z" />
    <glyph glyph-name="G" unicode="G" horiz-adv-x="839" 
d="M743 102q-57 -57 -129.5 -87t-153.5 -30q-83 0 -155.5 31.5t-126.5 85.5t-85.5 126.5t-31.5 155.5t31.5 154t86 123.5t127 82.5t154.5 30q81 0 153.5 -30t129.5 -87q13 -13 13 -31t-13 -31q-14 -14 -32 -14t-31 14q-45 44 -101 67.5t-119 23.5q-64 0 -120.5 -23
t-98.5 -63.5t-66.5 -96t-24.5 -119.5t24.5 -120.5t66.5 -98.5t98.5 -66.5t120.5 -24.5q58 0 111 20t96 58v188h-202q-19 0 -32 13t-13 31q0 19 13 32t32 13h246q19 0 32 -13t13 -32v-251q0 -18 -13 -31z" />
    <glyph glyph-name="H" unicode="H" horiz-adv-x="737" 
d="M609 -15q-18 0 -31 13t-13 31v339h-393v-339q0 -18 -13 -31t-31 -13q-19 0 -32 13t-13 31v701q0 18 13 31t32 13q18 0 31 -13t13 -31v-273h393v273q0 18 13 31t31 13q19 0 32 -13t13 -31v-701q0 -18 -13 -31t-32 -13z" />
    <glyph glyph-name="I" unicode="I" horiz-adv-x="255" 
d="M128 -15q-19 0 -32 13t-13 31v701q0 18 13 31t32 13q18 0 31 -13t13 -31v-701q0 -18 -13 -31t-31 -13z" />
    <glyph glyph-name="J" unicode="J" horiz-adv-x="374" 
d="M159 -15q-27 0 -51 10.5t-41.5 28t-28 41.5t-10.5 51q0 19 13 31.5t31 12.5q19 0 32 -12.5t13 -31.5q0 -17 12.5 -29.5t29.5 -12.5q18 0 30.5 12.5t12.5 29.5v614q0 18 12.5 31t31.5 13q18 0 31 -13t13 -31v-614q0 -27 -10 -51t-28 -41.5t-42 -28t-51 -10.5z" />
    <glyph glyph-name="K" unicode="K" horiz-adv-x="621" 
d="M537 -15q-18 0 -30 12l-336 322v-290q0 -18 -12.5 -31t-31.5 -13q-18 0 -31 13t-13 31v701q0 19 13 31.5t31 12.5q19 0 31.5 -12.5t12.5 -31.5v-290l336 322q13 13 31 12.5t31 -13.5q13 -14 12.5 -32t-13.5 -31l-332 -318l332 -319q13 -13 13.5 -31t-12.5 -31
q-12 -14 -32 -14z" />
    <glyph glyph-name="L" unicode="L" horiz-adv-x="434" 
d="M394 -15h-267q-18 0 -31 13t-13 31v701q0 19 13 31.5t31 12.5q19 0 31.5 -12.5t12.5 -31.5v-657h223q19 0 32 -13t13 -31t-13 -31t-32 -13z" />
    <glyph glyph-name="M" unicode="M" horiz-adv-x="946" 
d="M819 -15q-18 0 -31 13t-13 31v521l-262 -540q-6 -11 -17 -18t-23 -7t-23 7t-17 18l-262 540v-521q0 -18 -12.5 -31t-31.5 -13q-18 0 -31 13t-13 31v701q0 18 13 31t31 13q27 0 40 -24l306 -621l306 621q13 24 40 24q18 0 31 -13t13 -31v-701q0 -18 -13 -31t-31 -13z" />
    <glyph glyph-name="N" unicode="N" horiz-adv-x="697" 
d="M570 -15q-25 0 -38 21l-361 572v-549q0 -18 -12.5 -31t-31.5 -13q-18 0 -31 13t-13 31v701q0 18 13 31t31 13q25 0 38 -20l361 -572v548q0 18 12.5 31t31.5 13q18 0 31 -13t13 -31v-701q0 -18 -13 -31t-31 -13z" />
    <glyph glyph-name="O" unicode="O" horiz-adv-x="912" 
d="M456 -15q-82 0 -154 31t-125.5 84.5t-84.5 125.5t-31 154q0 81 31 153t84.5 125.5t125.5 84.5t154 31q81 0 153 -31t125.5 -84.5t84.5 -125.5t31 -153q0 -82 -31 -154t-84.5 -125.5t-125.5 -84.5t-153 -31zM456 686q-63 0 -119 -24t-98 -65.5t-66 -97.5t-24 -119t24 -119
t66 -98t98 -66t119 -24t119 24t97.5 66t65.5 98t24 119t-24 119t-65.5 97.5t-97.5 65.5t-119 24z" />
    <glyph glyph-name="P" unicode="P" horiz-adv-x="543" 
d="M304 332h-132v-303q0 -18 -13 -31t-31 -13q-19 0 -32 13t-13 31v701q0 18 13 31t32 13h176q46 0 86.5 -17.5t70.5 -47.5t47.5 -70t17.5 -86t-17.5 -86t-47.5 -70t-70.5 -47.5t-86.5 -17.5zM304 686h-132v-265h132q27 0 51.5 10.5t42.5 28.5t28.5 42t10.5 51t-10.5 51.5
t-28.5 42.5t-42.5 28.5t-51.5 10.5z" />
    <glyph glyph-name="Q" unicode="Q" horiz-adv-x="918" 
d="M813 -15q-18 0 -31 13l-77 76q-51 -42 -114.5 -65.5t-134.5 -23.5q-82 0 -154 31t-125.5 84.5t-84.5 125.5t-31 154q0 81 31 153t84.5 125.5t125.5 84.5t154 31q81 0 153 -31t125.5 -84.5t84.5 -125.5t31 -153q0 -69 -22 -130t-61 -112l77 -77q13 -13 13 -32
q0 -18 -13 -31t-31 -13zM456 686q-63 0 -119 -24t-98 -65.5t-66 -97.5t-24 -119t24 -119t66 -98t98 -66t119 -24q53 0 100.5 17t86.5 47l-135 135q-13 13 -13 31t13 31t31 13q19 0 32 -13l133 -133q28 38 43 83t15 96q0 63 -24 119t-65.5 97.5t-97.5 65.5t-119 24z" />
    <glyph glyph-name="R" unicode="R" horiz-adv-x="543" 
d="M304 332h-12l13 23l181 -303q6 -11 6 -23q0 -18 -13 -31t-31 -13q-12 0 -22.5 6t-16.5 16l-194 325h-43v-303q0 -18 -13 -31t-31 -13q-19 0 -32 13t-13 31v701q0 18 13 31t32 13h176q46 0 86.5 -17.5t70.5 -47.5t47.5 -70t17.5 -86t-17.5 -86t-47.5 -70t-70.5 -47.5
t-86.5 -17.5zM304 686h-132v-265h132q27 0 51.5 10.5t42.5 28.5t28.5 42t10.5 51t-10.5 51.5t-28.5 42.5t-42.5 28.5t-51.5 10.5z" />
    <glyph glyph-name="S" unicode="S" horiz-adv-x="565" 
d="M282 -15q-46 0 -86 17.5t-70 47.5t-47.5 70t-17.5 86q0 19 13 32t32 13q18 0 31 -13t13 -32q0 -27 10.5 -51t28.5 -42t42 -28.5t51 -10.5t51.5 10.5t42.5 28.5t28.5 42t10.5 51q0 33 -13 54.5t-36 37.5q-11 8 -25 14.5t-29 13.5q-15 6 -31 12t-33 12q-33 12 -66.5 27
t-60 37.5t-43.5 56t-17 82.5q0 46 17.5 86t47.5 70t70 47.5t86 17.5t86.5 -17.5t70.5 -47.5t47.5 -70t17.5 -86q0 -18 -13 -31t-32 -13q-18 0 -31 13t-13 31q0 27 -10.5 51.5t-28.5 42.5t-42.5 28.5t-51.5 10.5t-51 -10.5t-42 -28.5t-28.5 -42.5t-10.5 -51.5q0 -30 12.5 -50
t35.5 -35q24 -15 54 -27l32 -12t33 -12q33 -12 66.5 -27.5t60 -39t43.5 -58.5t17 -86q0 -46 -17.5 -86t-47.5 -70t-70.5 -47.5t-86.5 -17.5z" />
    <glyph glyph-name="T" unicode="T" horiz-adv-x="513" 
d="M463 686h-162v-657q0 -18 -13 -31t-31 -13q-19 0 -32 13t-13 31v657h-162q-18 0 -31 12.5t-13 31.5q0 18 13 31t31 13h413q18 0 31 -13t13 -31q0 -19 -13 -31.5t-31 -12.5z" />
    <glyph glyph-name="U" unicode="U" horiz-adv-x="775" 
d="M387 -15q-63 0 -118 24t-96.5 65t-65.5 96.5t-24 118.5v441q0 18 13 31t32 13q18 0 31 -13t13 -31v-441q0 -45 17 -84t46 -68t68.5 -46t83.5 -17q45 0 84 17t68.5 46t46.5 68.5t17 83.5v441q0 18 13 31t31 13q19 0 32 -13t13 -31v-441q0 -63 -24 -118.5t-65.5 -96.5
t-97 -65t-118.5 -24z" />
    <glyph glyph-name="V" unicode="V" horiz-adv-x="672" 
d="M662 720l-285 -707q-5 -13 -16 -20.5t-25 -7.5t-25 7.5t-16 20.5l-286 707q-3 7 -3 17q0 18 13 31t31 13q14 0 25.5 -7.5t16.5 -20.5l244 -605l244 605q5 13 16 20.5t25 7.5q19 0 32 -13t13 -31q0 -10 -4 -17z" />
    <glyph glyph-name="W" unicode="W" horiz-adv-x="1079" 
d="M981 389q-24 -64 -47 -126.5t-42.5 -114t-32.5 -87.5t-17 -47q-5 -13 -16.5 -21t-25.5 -8t-25.5 8t-16.5 21l-218 594l-219 -594q-5 -13 -16 -21t-25 -8t-25.5 8t-16.5 21q-4 11 -17.5 47t-32.5 87.5t-42 114t-47 126.5q-23 63 -45.5 123.5t-40 109t-28 80t-10.5 35.5
q0 18 13 31t31 13q14 0 25.5 -8t16.5 -21l219 -594l218 594q5 13 16.5 21t25.5 8t25 -8t16 -21l219 -594l218 594q5 13 16.5 21t25.5 8q18 0 31 -13t13 -31q0 -4 -10.5 -35.5t-28 -80t-39.5 -109t-45 -123.5z" />
    <glyph glyph-name="X" unicode="X" horiz-adv-x="695" 
d="M645 -15q-20 0 -34 16l-263 313l-264 -313q-13 -16 -34 -16q-18 0 -31 13t-13 31q0 16 10 29l274 325l-274 325q-10 13 -10 29q0 18 13 31t31 13q21 0 34 -16l264 -313l263 313q14 16 34 16q19 0 31.5 -13t12.5 -31t-10 -29l-273 -325l273 -325q10 -11 10 -29t-12.5 -31
t-31.5 -13z" />
    <glyph glyph-name="Y" unicode="Y" horiz-adv-x="566" 
d="M554 708l-227 -406v-273q0 -18 -13 -31t-31 -13t-31 13t-13 31v273l-227 406q-6 10 -6 22q0 18 13 31t31 13q12 0 22.5 -6t16.5 -16l194 -347l194 347q6 10 16.5 16t22.5 6q18 0 31 -13t13 -31q0 -12 -6 -22z" />
    <glyph glyph-name="Z" unicode="Z" horiz-adv-x="547" 
d="M486 -15h-425q-18 0 -31 13t-13 31q0 12 6 23l384 634h-346q-18 0 -31 13t-13 31t13 31t31 13h425q18 0 31 -13t13 -31q0 -13 -6 -23l-384 -633h346q18 0 31 -13t13 -32q0 -18 -13 -31t-31 -13z" />
    <glyph glyph-name="bracketleft" unicode="[" horiz-adv-x="366" 
d="M282 -241h-199q-18 0 -31 13t-13 31v927q0 18 13 31t31 13h199q19 0 31.5 -13t12.5 -31q0 -19 -12.5 -31.5t-31.5 -12.5h-154v-838h154q19 0 31.5 -13t12.5 -32q0 -18 -12.5 -31t-31.5 -13z" />
    <glyph glyph-name="backslash" unicode="\" horiz-adv-x="454" 
d="M431 -240q-8 -3 -17 -3q-13 0 -24.5 7t-16.5 21l-375 935q-7 17 0.5 34t24.5 24t33.5 -0.5t24.5 -24.5l374 -935q8 -17 0.5 -34t-24.5 -24z" />
    <glyph glyph-name="bracketright" unicode="]" horiz-adv-x="366" 
d="M282 -241h-199q-18 0 -31 13t-13 31q0 19 13 32t31 13h155v838h-155q-18 0 -31 12.5t-13 31.5q0 18 13 31t31 13h199q19 0 31.5 -13t12.5 -31v-927q0 -18 -12.5 -31t-31.5 -13z" />
    <glyph glyph-name="asciicircum" unicode="^" horiz-adv-x="527" 
d="M500 362q-16 -10 -33.5 -6t-27.5 20l-176 278l-175 -278q-10 -16 -28 -20t-33 6q-16 10 -20 27.5t6 33.5l213 338q12 20 37 20q26 0 38 -20l213 -338q7 -10 7 -24q0 -11 -5 -21t-16 -16z" />
    <glyph glyph-name="underscore" unicode="_" horiz-adv-x="473" 
d="M412 -15h-351q-18 0 -31 13t-13 31q0 19 13 32t31 13h351q18 0 31 -13t13 -32q0 -18 -13 -31t-31 -13z" />
    <glyph glyph-name="grave" unicode="`" horiz-adv-x="212" 
d="M151 621q-19 0 -31 13l-90 90q-13 13 -13 31t13 31t31 13t31 -13l90 -90q13 -12 13 -31q0 -18 -13 -31t-31 -13z" />
    <glyph glyph-name="a" unicode="a" 
d="M510 -15q-19 0 -32 13t-13 31v19q-35 -30 -78 -46.5t-90 -16.5q-53 0 -100 20.5t-82 55.5t-55.5 81.5t-20.5 99.5t20.5 100t55.5 82t82 55.5t100 20.5q47 0 90 -16.5t78 -46.5v19q0 18 13 31t32 13q18 0 31 -13t13 -31v-427q0 -18 -13 -31t-31 -13zM297 411
q-35 0 -65.5 -13.5t-53.5 -36.5t-36.5 -53.5t-13.5 -65.5t13.5 -65.5t36.5 -53.5t53.5 -36t65.5 -13t65.5 13t53.5 36t36 53.5t13 65.5t-13 65.5t-36 53.5t-53.5 36.5t-65.5 13.5z" />
    <glyph glyph-name="b" unicode="b" 
d="M341 -15q-48 0 -91 16.5t-78 46.5v-19q0 -18 -13 -31t-31 -13q-19 0 -32 13t-13 31l-4 701q-1 18 12.5 31t31.5 13q19 0 31.5 -13t12.5 -31l4 -294q35 31 78.5 47.5t91.5 16.5q53 0 100 -20.5t82 -55.5t55 -82t20 -100t-20 -99.5t-55 -81.5t-82 -55.5t-100 -20.5z
M341 411q-35 0 -65.5 -13.5t-53.5 -36.5t-36.5 -53.5t-13.5 -65.5t13.5 -65.5t36.5 -53.5t53.5 -36t65.5 -13t65.5 13t53.5 36t36 53.5t13 65.5t-13 65.5t-36 53.5t-53.5 36.5t-65.5 13.5z" />
    <glyph glyph-name="c" unicode="c" horiz-adv-x="522" 
d="M447 349q-10 0 -17 3.5t-13 8.5q-29 25 -56 37.5t-64 12.5q-35 0 -65.5 -13.5t-53.5 -36.5t-36.5 -53.5t-13.5 -65.5t13.5 -65.5t36.5 -53.5t53.5 -36t65.5 -13q37 0 64 12.5t56 37.5q6 5 13 8.5t17 3.5q19 0 32 -13t13 -31q0 -10 -4 -17.5t-9 -13.5q-17 -18 -38.5 -32.5
t-45.5 -24t-49 -14.5t-49 -5q-53 0 -100 20.5t-82 55.5t-55.5 81.5t-20.5 99.5t20.5 100t55.5 82t82 55.5t100 20.5q24 0 49 -5t49 -14.5t45.5 -24t38.5 -32.5q5 -6 9 -13.5t4 -17.5q0 -18 -13 -31t-32 -13z" />
    <glyph glyph-name="d" unicode="d" 
d="M510 -15q-19 0 -32 13t-13 31v19q-35 -30 -78 -46.5t-90 -16.5q-53 0 -100 20.5t-82 55.5t-55.5 81.5t-20.5 99.5t20.5 100t55.5 82t82 55.5t100 20.5q47 0 90 -16.5t78 -47.5v294q0 18 13 31t32 13q18 0 31 -13t13 -31v-701q0 -18 -13 -31t-31 -13zM297 411
q-35 0 -65.5 -13.5t-53.5 -36.5t-36.5 -53.5t-13.5 -65.5t13.5 -65.5t36.5 -53t53.5 -36t65.5 -13.5q34 0 65 13.5t53.5 36t36 53t13.5 65.5t-13.5 65.5t-36 53.5t-53.5 36.5t-65 13.5z" />
    <glyph glyph-name="e" unicode="e" horiz-adv-x="592" 
d="M509 219h-379q4 -31 18.5 -57.5t37 -46t51 -30.5t60.5 -11q19 0 34.5 3t29 9.5t27 16t29.5 21.5q6 5 12.5 8.5t17.5 3.5q19 0 32 -13t13 -31q0 -11 -4 -18t-9 -13q-16 -18 -37.5 -32.5t-46 -24t-50 -14.5t-48.5 -5q-53 0 -100 20.5t-82 55.5t-55.5 81.5t-20.5 99.5
t20.5 100t55.5 82t82 55.5t100 20.5q51 0 96 -17t80 -48.5t56 -75t24 -95.5q1 -20 -12.5 -32.5t-31.5 -12.5zM297 411q-52 0 -94 -28.5t-62 -74.5h311q-19 47 -61.5 75t-93.5 28z" />
    <glyph glyph-name="f" unicode="f" horiz-adv-x="384" 
d="M339 411h-129v-382q0 -18 -13 -31t-31 -13q-19 0 -32 13t-13 31v382h-60q-18 0 -31 13t-13 32q0 18 13 31t31 13h60v143q0 27 10.5 51t28 41.5t41.5 28t51 10.5t51 -10.5t41.5 -28t28 -41.5t10.5 -51q0 -18 -13 -31t-31 -13t-31 13t-13 31q0 17 -13 30t-30 13t-29.5 -13
t-12.5 -30v-143h129q18 0 31 -13t13 -31q0 -19 -13 -32t-31 -13z" />
    <glyph glyph-name="g" unicode="g" 
d="M297 -230q-33 0 -65.5 8.5t-62 25t-54 40t-40.5 52.5q-2 5 -4 10.5t-2 11.5q0 18 13 31.5t32 13.5q14 0 22 -6t15 -14q2 -4 5 -7.5t5 -7.5l9 -12q23 -27 57 -42t70 -15q34 0 65 13.5t53.5 36.5t36 53.5t13.5 65.5v21q-35 -31 -78 -47.5t-90 -16.5q-53 0 -100 20.5
t-82 55.5t-55.5 82t-20.5 100t20.5 99.5t55.5 81.5t82 55.5t100 20.5q47 0 90 -16.5t78 -46.5v19q0 18 13 31t32 13q18 0 31 -13t13 -31v-428q0 -53 -20.5 -100t-55.5 -82t-81.5 -55.5t-99.5 -20.5zM297 411q-35 0 -65.5 -13.5t-53.5 -36t-36.5 -53.5t-13.5 -65
q0 -35 13.5 -65.5t36.5 -53.5t53.5 -36.5t65.5 -13.5q34 0 65 13.5t53.5 36.5t36 53.5t13.5 65.5q0 34 -13.5 65t-36 53.5t-53.5 36t-65 13.5z" />
    <glyph glyph-name="h" unicode="h" horiz-adv-x="563" 
d="M458 -15q-19 0 -32 13t-13 31v262q0 25 -9.5 46.5t-26 38t-38 26t-46.5 9.5q-24 0 -46 -9.5t-38 -26t-25.5 -38t-9.5 -46.5q0 -4 -2 -8v-254q0 -18 -13 -31t-31 -13q-19 0 -32 13t-13 31v701q0 18 13 31t32 13q18 0 31 -13t13 -31v-269q26 19 57.5 29t63.5 10
q43 0 81 -16.5t66.5 -45t45 -66.5t16.5 -81v-262q0 -18 -13 -31t-31 -13z" />
    <glyph glyph-name="i" unicode="i" horiz-adv-x="284" 
d="M142 568q-24 0 -41.5 17.5t-17.5 41.5q0 25 17.5 41.5t41.5 16.5q25 0 42 -16.5t17 -41.5q0 -24 -17.5 -41.5t-41.5 -17.5zM142 -15q-18 0 -31 13t-13 31v427q0 18 13 31t31 13t31.5 -13t13.5 -31v-427q0 -18 -13.5 -31t-31.5 -13z" />
    <glyph glyph-name="j" unicode="j" horiz-adv-x="267" 
d="M126 568q-24 0 -41.5 17.5t-17.5 41.5q0 25 17 41.5t42 16.5q24 0 41.5 -16.5t17.5 -41.5q0 -24 -17.5 -41.5t-41.5 -17.5zM38 -229q-27 0 -51 10.5t-41.5 28t-28 41.5t-10.5 51q0 18 13 31t31 13t31 -13t13 -31q0 -17 13 -29.5t30 -12.5t29.5 12.5t12.5 29.5v554
q0 18 13 31t31 13q19 0 32 -13t13 -31v-554q0 -27 -10.5 -51t-28 -41.5t-41.5 -28t-51 -10.5z" />
    <glyph glyph-name="k" unicode="k" horiz-adv-x="457" 
d="M426 426l-190 -182l190 -183q14 -12 14 -32q0 -18 -13 -31t-31 -13q-19 0 -31 12l-194 186v-154q0 -18 -13 -31t-31 -13t-31 13t-13 31v701q0 18 13 31t31 13t31 -13t13 -31v-426l194 186q12 12 31 12q18 0 31 -13t13 -31t-14 -32z" />
    <glyph glyph-name="l" unicode="l" horiz-adv-x="255" 
d="M127 -15q-18 0 -31 13t-13 31v701q0 18 13 31t31 13t31 -13t13 -31v-701q0 -18 -13 -31t-31 -13z" />
    <glyph glyph-name="m" unicode="m" horiz-adv-x="802" 
d="M170 470q47 30 101 30q42 0 79 -17.5t63 -48.5q26 31 63 48.5t78 17.5q39 0 72.5 -14.5t59 -40t40 -59.5t14.5 -72v-285q0 -18 -13 -31t-31 -13t-31 13t-13 31v285q0 20 -7.5 37.5t-21 31t-31.5 21t-38 7.5t-37.5 -7.5t-31 -21t-21 -31t-7.5 -37.5v-285q0 -18 -13 -31
t-31 -13q-19 0 -32 13t-13 31v285q0 20 -7.5 37.5t-21 31t-31 21t-37.5 7.5t-38 -7.5t-31 -21t-20.5 -31t-7.5 -37.5q0 -3 -2 -9v-276q0 -18 -13 -31t-31 -13q-19 0 -32 13t-13 31v433q0 19 13 32t32 13q36 0 42 -37z" />
    <glyph glyph-name="n" unicode="n" horiz-adv-x="518" 
d="M170 470q47 30 101 30q38 0 72 -14.5t59.5 -40t40 -59.5t14.5 -72v-285q0 -18 -13 -31t-31 -13q-19 0 -32 13t-13 31v285q0 20 -7.5 37.5t-21 31t-31 21t-37.5 7.5t-38 -7.5t-31 -21t-20.5 -31t-7.5 -37.5q0 -3 -2 -9v-276q0 -18 -13 -31t-31 -13q-19 0 -32 13t-13 31
v433q0 19 13 32t32 13q36 0 42 -37z" />
    <glyph glyph-name="o" unicode="o" horiz-adv-x="593" 
d="M297 -15q-53 0 -100 20.5t-82 55.5t-55.5 81.5t-20.5 99.5t20.5 100t55.5 82t82 55.5t100 20.5t99.5 -20.5t81.5 -55.5t55.5 -82t20.5 -100t-20.5 -99.5t-55.5 -81.5t-81.5 -55.5t-99.5 -20.5zM297 411q-35 0 -65.5 -13.5t-53.5 -36.5t-36.5 -53.5t-13.5 -65.5
t13.5 -65.5t36.5 -53.5t53.5 -36t65.5 -13t65.5 13t53.5 36t36 53.5t13 65.5t-13.5 65.5t-36 53.5t-53.5 36.5t-65 13.5z" />
    <glyph glyph-name="p" unicode="p" 
d="M341 -15q-48 0 -91 16.5t-78 46.5v-243q0 -19 -13 -32t-31 -13q-19 0 -32 13t-13 32v651q0 18 13 31t32 13q18 0 31 -13t13 -31v-19q35 30 78 46.5t91 16.5q53 0 100 -20.5t82 -55.5t55 -81.5t20 -99.5t-20 -100t-55 -82t-82 -55.5t-100 -20.5zM341 411q-35 0 -65.5 -13
t-53.5 -36t-36.5 -53.5t-13.5 -65.5t13.5 -65.5t36.5 -53.5t53.5 -36.5t65.5 -13.5t65.5 13.5t53.5 36.5t36 53.5t13 65.5t-13 65.5t-36 53.5t-53.5 36t-65.5 13z" />
    <glyph glyph-name="q" unicode="q" 
d="M510 -240q-19 0 -32 13t-13 32v243q-35 -30 -78 -46.5t-90 -16.5q-53 0 -100 20.5t-82 55.5t-55.5 82t-20.5 100t20.5 99.5t55.5 81.5t82 55.5t100 20.5q47 0 90 -16.5t78 -46.5v19q0 18 13 31t32 13q18 0 31 -13t13 -31v-651q0 -19 -13 -32t-31 -13zM297 411
q-35 0 -65.5 -13t-53.5 -36t-36.5 -53.5t-13.5 -65.5t13.5 -65.5t36.5 -53.5t53.5 -36.5t65.5 -13.5q34 0 65 13.5t53.5 36.5t36 53.5t13.5 65.5t-13.5 65.5t-36 53.5t-53.5 36t-65 13z" />
    <glyph glyph-name="r" unicode="r" horiz-adv-x="391" 
d="M169 471q16 14 35.5 21.5t39.5 7.5q49 0 80.5 -24t48.5 -69q4 -10 3 -21t-6.5 -20t-15 -14.5t-22.5 -5.5q-11 0 -19.5 5t-14.5 12q-5 6 -8.5 12.5t-7.5 13.5q-7 11 -15.5 18t-28.5 5q-13 -1 -25 -8t-21 -17t-14.5 -22.5t-5.5 -25.5v-310q0 -18 -13 -31t-31 -13
q-19 0 -32 13t-13 31v427q0 18 13 31t32 13q14 0 25 -8t16 -21z" />
    <glyph glyph-name="s" unicode="s" horiz-adv-x="412" 
d="M211 -15q-30 0 -60.5 10t-55 29t-40 47t-15.5 63q0 18 13 31t31 13q19 0 32 -13t13 -31q0 -29 25 -44.5t57 -15.5q35 0 53.5 14.5t18.5 47.5q0 20 -7.5 32t-21.5 21q-8 5 -16.5 8.5t-18.5 7.5t-20.5 7t-21.5 7q-22 7 -44.5 16.5t-41 24.5t-30 38t-11.5 58q0 32 12 58.5
t33 45.5t48.5 29.5t57.5 10.5t57.5 -10.5t48 -29.5t33 -45.5t12.5 -58.5q0 -18 -13 -31t-32 -13q-18 0 -31 13t-13 31q0 25 -18 40t-44 15t-44 -15t-18 -40q0 -23 28 -37q16 -9 36 -15q10 -5 21 -8t22 -8q22 -8 44.5 -19.5t40.5 -29t29.5 -42.5t11.5 -61t-12.5 -64
t-34.5 -47.5t-51.5 -29.5t-62.5 -10z" />
    <glyph glyph-name="t" unicode="t" horiz-adv-x="381" 
d="M316 411h-81v-382q0 -18 -13 -31t-32 -13q-18 0 -31 13t-13 31v382h-82q-18 0 -31 13t-13 31q0 19 13 32t31 13h82v147q0 19 13 31.5t31 12.5q19 0 32 -12.5t13 -31.5v-147h81q19 0 32 -13t13 -32q0 -18 -13 -31t-32 -13z" />
    <glyph glyph-name="u" unicode="u" horiz-adv-x="520" 
d="M260 -13q-41 0 -77.5 15.5t-63.5 42.5t-42.5 63.5t-15.5 77.5v265q0 19 13 32t32 13q18 0 31 -13t13 -32v-265q0 -23 8.5 -43t23.5 -35t35 -23.5t43 -8.5q22 0 42 8.5t35 23.5t24 35t9 43v265q0 19 13 32t31 13t31 -13t13 -32v-265q0 -41 -15.5 -77.5t-42.5 -63.5
t-63 -42.5t-77 -15.5z" />
    <glyph glyph-name="v" unicode="v" horiz-adv-x="457" 
d="M436 439l-166 -426q-5 -13 -16.5 -20.5t-25.5 -7.5q-13 0 -24.5 7.5t-16.5 20.5l-167 426q-3 7 -3 17q0 18 13 31t31 13q14 0 25.5 -7.5t16.5 -20.5l125 -339l126 339q5 13 16.5 20.5t24.5 7.5q19 0 32 -13t13 -31q0 -7 -4 -17z" />
    <glyph glyph-name="w" unicode="w" horiz-adv-x="801" 
d="M780 439l-169 -426q-5 -13 -16 -20.5t-25 -7.5t-25 7.5t-16 20.5l-129 323l-128 -323q-5 -13 -16 -20.5t-25 -7.5t-25 7.5t-16 20.5l-170 426q-3 7 -3 17q0 18 13 31t31 13q14 0 25.5 -7.5t16.5 -20.5l128 -340l128 340q5 13 16.5 20.5t24.5 7.5q14 0 25.5 -7.5
t16.5 -20.5l128 -340l128 340q5 13 16 20.5t25 7.5q19 0 32 -13t13 -31q0 -7 -4 -17z" />
    <glyph glyph-name="x" unicode="x" horiz-adv-x="470" 
d="M409 -15q-9 0 -18.5 4t-16.5 13l-139 186l-139 -186q-13 -17 -35 -17q-18 0 -31 13t-13 31q0 16 10 29l150 191l-150 178q-10 13 -10 29q0 18 13 31t31 13q22 0 35 -16l139 -175l140 175q13 16 34 16q18 0 31 -13t13 -31t-10 -29l-150 -178l150 -191q10 -13 10 -29
q0 -18 -13 -31t-31 -13z" />
    <glyph glyph-name="y" unicode="y" horiz-adv-x="457" 
d="M436 439l-167 -414l-87 -212q-5 -13 -16 -20.5t-25 -7.5q-18 0 -31 13t-13 31q0 9 3 17l80 196l-160 397q-3 7 -3 17q0 18 13 31t31 13q14 0 25.5 -7.5t16.5 -20.5l125 -320l126 320q5 13 16 20.5t25 7.5q19 0 32 -13t13 -31q0 -10 -4 -17z" />
    <glyph glyph-name="z" unicode="z" horiz-adv-x="492" 
d="M430 -15h-369q-18 0 -31 13t-13 31q0 16 11 29l305 353h-272q-18 0 -31 13t-13 31q0 19 13 32t31 13h369q19 0 32 -13t13 -31q0 -17 -11 -30l-305 -352h271q19 0 32 -13t13 -32q0 -18 -13 -31t-32 -13z" />
    <glyph glyph-name="braceleft" unicode="{" horiz-adv-x="375" 
d="M292 -241h-37q-38 0 -72.5 17.5t-56.5 49.5t-27 70t8 74l18 49q17 46 1.5 92t-56.5 72l-32 21q-21 13 -21 37q0 23 21 38l37 23q40 26 56 70t2 89l-36 114q-12 38 -5 75t28 66t54 46.5t73 17.5h45q18 0 31 -13t13 -32q0 -18 -13 -31t-31 -13h-45q-17 0 -31.5 -7.5
t-23.5 -20.5t-12 -29t2 -32l36 -115q11 -34 10.5 -68.5t-10.5 -67t-29.5 -61t-46.5 -49.5q27 -23 45.5 -52.5t27.5 -62.5t7.5 -68.5t-13.5 -69.5l-18 -48q-12 -34 8 -63t56 -29h37q18 0 31 -13t13 -32q0 -18 -13 -31t-31 -13z" />
    <glyph glyph-name="bar" unicode="|" horiz-adv-x="255" 
d="M127 -241q-18 0 -31 13t-13 31v927q0 18 13 31t31 13q19 0 31.5 -13t12.5 -31v-927q0 -18 -12.5 -31t-31.5 -13z" />
    <glyph glyph-name="braceright" unicode="}" horiz-adv-x="375" 
d="M338 204l-32 -21q-21 -13 -35 -31.5t-21.5 -40.5t-7.5 -45.5t8 -46.5l18 -49q14 -36 9 -74t-28 -70q-22 -32 -56 -49.5t-73 -17.5h-37q-18 0 -31 13t-13 31q0 19 13 32t31 13h37q37 0 57 29q19 28 8 63l-18 48q-13 34 -14 69.5t8 68.5t27.5 62.5t45.5 52.5
q-28 21 -47.5 49.5t-29.5 61t-10.5 67t10.5 68.5l36 115q5 16 2 32t-12 29t-23 20.5t-32 7.5h-45q-18 0 -31 13t-13 31q0 19 13 32t31 13h45q40 0 73 -17.5t54 -46.5t28 -66t-5 -75l-36 -114q-14 -45 2 -89t56 -70l38 -23q20 -15 20 -38q0 -24 -20 -37z" />
    <glyph glyph-name="asciitilde" unicode="~" horiz-adv-x="556" 
d="M343 161q-23 0 -39.5 8.5t-30.5 19l-26 19.5t-25 9q-9 0 -13.5 -8.5t-10 -18.5t-14 -18.5t-23.5 -8.5q-16 0 -29.5 11t-13.5 28q0 10 5 20q14 32 35.5 54.5t59.5 22.5q23 0 41.5 -8.5t33.5 -19t26.5 -19t20.5 -8.5q7 0 11.5 7t9.5 15.5t12 15.5t21 7q16 0 30 -11t14 -28
q0 -5 -2 -10.5t-4 -10.5q-13 -29 -33.5 -48.5t-55.5 -19.5z" />
    <glyph glyph-name="Adieresis" unicode="&#xc4;" horiz-adv-x="725" 
d="M693 -11q-8 -4 -17 -4q-13 0 -24.5 7t-16.5 20l-79 186h-363l-79 -186q-7 -17 -24 -24t-34 1q-17 7 -24 24t1 34l90 213l211 494q5 13 16 20t25 7q13 0 24 -7t16 -20q76 -178 151 -353.5t151 -353.5q7 -17 0 -34t-24 -24zM375 623l-144 -336h287zM458 829
q-24 0 -41.5 17.5t-17.5 41.5q0 25 17 42t42 17t42 -17t17 -42q0 -24 -17.5 -41.5t-41.5 -17.5zM288 829q-24 0 -41.5 17.5t-17.5 41.5q0 25 17 42t42 17t42 -17t17 -42q0 -24 -17.5 -41.5t-41.5 -17.5z" />
    <glyph glyph-name="Aring" unicode="&#xc5;" horiz-adv-x="725" 
d="M693 -11q-8 -4 -17 -4q-13 0 -24.5 7t-16.5 20l-79 186h-363l-79 -186q-7 -17 -24 -24t-34 1q-17 7 -24 24t1 34l90 213l211 494q5 13 16 20t25 7q13 0 24 -7t16 -20q76 -178 151 -353.5t151 -353.5q7 -17 0 -34t-24 -24zM375 623l-144 -336h287zM373 738q-24 0 -45 9
t-36.5 24.5t-24.5 36t-9 44.5t9 45t24.5 36.5t36.5 24.5t45 9t44.5 -9t36 -24.5t24.5 -36.5t9 -45t-9 -44.5t-24.5 -36t-36 -24.5t-44.5 -9zM373 894q-17 0 -29.5 -12.5t-12.5 -29.5t12.5 -29t29.5 -12t29 12t12 29t-12 29.5t-29 12.5z" />
    <glyph glyph-name="Ccedilla" unicode="&#xc7;" horiz-adv-x="816" 
d="M477 -15q-83 0 -155.5 31.5t-126.5 85.5t-85.5 126.5t-31.5 155.5q0 82 31.5 153.5t85.5 124t126.5 82.5t155.5 30q80 0 152 -29.5t129 -86.5q14 -14 14 -32t-14 -31q-13 -13 -31 -13t-31 13q-45 45 -101 68t-118 23q-65 0 -121.5 -23.5t-98.5 -64t-66 -95.5t-24 -119
t24.5 -120.5t66.5 -98.5t98.5 -66.5t120.5 -24.5q62 0 118 23t101 67q13 14 31 14t31 -14q14 -13 14 -31t-14 -31q-57 -57 -129 -87t-152 -30zM444 -159q-13 0 -26 5t-13 25q0 19 14.5 24t29.5 5q9 0 18 -0.5t18 -0.5q8 0 17.5 1t9.5 12q0 8 -9 9t-15 1q-9 0 -17.5 -1.5
t-17.5 -1.5q-13 0 -21.5 7t-8.5 21q0 8 4 20t9 24q5 11 11 24.5t15 33.5v-3q9 9 22 9t21.5 -8.5t8.5 -21.5q0 -8 -6.5 -23t-10.5 -23q26 -2 46 -15.5t20 -45.5q0 -29 -11.5 -44.5t-28.5 -22.5t-38.5 -8.5t-40.5 -1.5z" />
    <glyph glyph-name="Eacute" unicode="&#xc9;" horiz-adv-x="556" 
d="M491 -15h-344q-19 0 -32 13t-13 31v2v2v697q0 18 13 31t32 13h344q19 0 32 -13t13 -31q0 -19 -13 -31.5t-32 -12.5h-300v-255h253q18 0 31 -12.5t13 -31.5q0 -18 -13 -31t-31 -13h-253v-269h300q19 0 32 -13t13 -32q0 -18 -13 -31t-32 -13zM306.981 795
q18.999 0 30.998 13l89.9941 90q12.999 13 12.999 31t-12.999 31t-30.998 13t-30.998 -13l-89.9941 -90q-12.999 -12 -12.999 -31q0 -18 12.999 -31t30.998 -13z" />
    <glyph glyph-name="Ntilde" unicode="&#xd1;" horiz-adv-x="697" 
d="M589 -15q-25 0 -38 21l-361 572v-549q0 -18 -12.5 -31t-31.5 -13q-18 0 -31 13t-13 31v701q0 18 13 31t31 13q25 0 38 -20l361 -572v548q0 18 12.5 31t31.5 13q18 0 31 -13t13 -31v-701q0 -18 -13 -31t-31 -13zM447 834q-19 0 -37.5 7t-35.5 15.5l-31 15.5t-24 7
q-7 0 -12 -6t-11 -13.5t-14.5 -13.5t-20.5 -6q-17 0 -30 12t-13 29q0 11 6 22q15 24 39 41.5t53 17.5q19 0 37 -7t34.5 -15.5t30.5 -15.5t25 -7q7 0 12 5l10.5 10.5t12.5 10.5t19 5q17 0 30 -12t13 -29q0 -14 -9.5 -27.5t-24 -23.5t-30.5 -16t-29 -6z" />
    <glyph glyph-name="Odieresis" unicode="&#xd6;" horiz-adv-x="912" 
d="M473 -15q-82 0 -154 31t-125.5 84.5t-84.5 125.5t-31 154q0 81 31 153t84.5 125.5t125.5 84.5t154 31q81 0 153 -31t125.5 -84.5t84.5 -125.5t31 -153q0 -82 -31 -154t-84.5 -125.5t-125.5 -84.5t-153 -31zM473 686q-63 0 -119 -24t-98 -65.5t-66 -97.5t-24 -119t24 -119
t66 -98t98 -66t119 -24t119 24t97.5 66t65.5 98t24 119t-24 119t-65.5 97.5t-97.5 65.5t-119 24zM551 829q-24 0 -41.5 17.5t-17.5 41.5q0 25 17 42t42 17t42 -17t17 -42q0 -24 -17.5 -41.5t-41.5 -17.5zM381 829q-24 0 -41.5 17.5t-17.5 41.5q0 25 17 42t42 17t42 -17
t17 -42q0 -24 -17.5 -41.5t-41.5 -17.5z" />
    <glyph glyph-name="Udieresis" unicode="&#xdc;" horiz-adv-x="775" 
d="M406 -15q-63 0 -118 24t-96.5 65t-65.5 96.5t-24 118.5v441q0 18 13 31t32 13q18 0 31 -13t13 -31v-441q0 -45 17 -84t46 -68t68.5 -46t83.5 -17q45 0 84 17t68.5 46t46.5 68.5t17 83.5v441q0 18 13 31t31 13q19 0 32 -13t13 -31v-441q0 -63 -24 -118.5t-65.5 -96.5
t-97 -65t-118.5 -24zM482 829q-24 0 -41.5 17.5t-17.5 41.5q0 25 17 42t42 17t42 -17t17 -42q0 -24 -17.5 -41.5t-41.5 -17.5zM312 829q-24 0 -41.5 17.5t-17.5 41.5q0 25 17 42t42 17t42 -17t17 -42q0 -24 -17.5 -41.5t-41.5 -17.5z" />
    <glyph glyph-name="aacute" unicode="&#xe1;" 
d="M524 -15q-19 0 -32 13t-13 31v19q-35 -30 -78 -46.5t-90 -16.5q-53 0 -100 20.5t-82 55.5t-55.5 81.5t-20.5 99.5t20.5 100t55.5 82t82 55.5t100 20.5q47 0 90 -16.5t78 -46.5v19q0 18 13 31t32 13q18 0 31 -13t13 -31v-427q0 -18 -13 -31t-31 -13zM311 411
q-35 0 -65.5 -13.5t-53.5 -36.5t-36.5 -53.5t-13.5 -65.5t13.5 -65.5t36.5 -53.5t53.5 -36t65.5 -13t65.5 13t53.5 36t36 53.5t13 65.5t-13 65.5t-36 53.5t-53.5 36.5t-65.5 13.5zM282.982 568q18.999 0 30.998 13l89.9951 90q12.999 13 12.999 31t-12.999 31t-30.998 13
t-30.998 -13l-89.9951 -90q-12.999 -12 -12.999 -31q0 -18 12.999 -31t30.998 -13z" />
    <glyph glyph-name="agrave" unicode="&#xe0;" 
d="M524 -15q-19 0 -32 13t-13 31v19q-35 -30 -78 -46.5t-90 -16.5q-53 0 -100 20.5t-82 55.5t-55.5 81.5t-20.5 99.5t20.5 100t55.5 82t82 55.5t100 20.5q47 0 90 -16.5t78 -46.5v19q0 18 13 31t32 13q18 0 31 -13t13 -31v-427q0 -18 -13 -31t-31 -13zM311 411
q-35 0 -65.5 -13.5t-53.5 -36.5t-36.5 -53.5t-13.5 -65.5t13.5 -65.5t36.5 -53.5t53.5 -36t65.5 -13t65.5 13t53.5 36t36 53.5t13 65.5t-13 65.5t-36 53.5t-53.5 36.5t-65.5 13.5zM306 568q-19 0 -31 13l-90 90q-13 13 -13 31t13 31t31 13t31 -13l90 -90q13 -12 13 -31
q0 -18 -13 -31t-31 -13z" />
    <glyph glyph-name="acircumflex" unicode="&#xe2;" 
d="M524 -15q-19 0 -32 13t-13 31v19q-35 -30 -78 -46.5t-90 -16.5q-53 0 -100 20.5t-82 55.5t-55.5 81.5t-20.5 99.5t20.5 100t55.5 82t82 55.5t100 20.5q47 0 90 -16.5t78 -46.5v19q0 18 13 31t32 13q18 0 31 -13t13 -31v-427q0 -18 -13 -31t-31 -13zM311 411
q-35 0 -65.5 -13.5t-53.5 -36.5t-36.5 -53.5t-13.5 -65.5t13.5 -65.5t36.5 -53.5t53.5 -36t65.5 -13t65.5 13t53.5 36t36 53.5t13 65.5t-13 65.5t-36 53.5t-53.5 36.5t-65.5 13.5zM402 561q-17 0 -29 12l-65 67l-65 -67q-12 -12 -29 -12t-28.5 12t-11.5 29t12 29l94 96
q10 12 28 12q17 0 29 -12l94 -96q11 -13 11 -29q0 -17 -11.5 -29t-28.5 -12z" />
    <glyph glyph-name="adieresis" unicode="&#xe4;" 
d="M524 -15q-19 0 -32 13t-13 31v19q-35 -30 -78 -46.5t-90 -16.5q-53 0 -100 20.5t-82 55.5t-55.5 81.5t-20.5 99.5t20.5 100t55.5 82t82 55.5t100 20.5q47 0 90 -16.5t78 -46.5v19q0 18 13 31t32 13q18 0 31 -13t13 -31v-427q0 -18 -13 -31t-31 -13zM311 411
q-35 0 -65.5 -13.5t-53.5 -36.5t-36.5 -53.5t-13.5 -65.5t13.5 -65.5t36.5 -53.5t53.5 -36t65.5 -13t65.5 13t53.5 36t36 53.5t13 65.5t-13 65.5t-36 53.5t-53.5 36.5t-65.5 13.5zM396 598q-24 0 -41.5 17.5t-17.5 41.5q0 25 17 42t42 17t42 -17t17 -42q0 -24 -17.5 -41.5
t-41.5 -17.5zM226 598q-24 0 -41.5 17.5t-17.5 41.5q0 25 17 42t42 17t42 -17t17 -42q0 -24 -17.5 -41.5t-41.5 -17.5z" />
    <glyph glyph-name="atilde" unicode="&#xe3;" 
d="M510 -15q-19 0 -32 13t-13 31v19q-35 -30 -78 -46.5t-90 -16.5q-53 0 -100 20.5t-82 55.5t-55.5 81.5t-20.5 99.5t20.5 100t55.5 82t82 55.5t100 20.5q47 0 90 -16.5t78 -46.5v19q0 18 13 31t32 13q18 0 31 -13t13 -31v-427q0 -18 -13 -31t-31 -13zM297 411
q-35 0 -65.5 -13.5t-53.5 -36.5t-36.5 -53.5t-13.5 -65.5t13.5 -65.5t36.5 -53.5t53.5 -36t65.5 -13t65.5 13t53.5 36t36 53.5t13 65.5t-13 65.5t-36 53.5t-53.5 36.5t-65.5 13.5zM356 585q-19 0 -37.5 7t-35.5 15.5l-31 15.5t-24 7q-7 0 -12 -6t-11 -13.5t-14.5 -13.5
t-20.5 -6q-17 0 -30 12t-13 29q0 11 6 22q15 24 39 41.5t53 17.5q19 0 37 -7t34.5 -15.5t30.5 -15.5t25 -7q7 0 12 5l10.5 10.5t12.5 10.5t19 5q17 0 30 -12t13 -29q0 -14 -9.5 -27.5t-24 -23.5t-30.5 -16t-29 -6z" />
    <glyph glyph-name="aring" unicode="&#xe5;" 
d="M524 -15q-19 0 -32 13t-13 31v19q-35 -30 -78 -46.5t-90 -16.5q-53 0 -100 20.5t-82 55.5t-55.5 81.5t-20.5 99.5t20.5 100t55.5 82t82 55.5t100 20.5q47 0 90 -16.5t78 -46.5v19q0 18 13 31t32 13q18 0 31 -13t13 -31v-427q0 -18 -13 -31t-31 -13zM311 411
q-35 0 -65.5 -13.5t-53.5 -36.5t-36.5 -53.5t-13.5 -65.5t13.5 -65.5t36.5 -53.5t53.5 -36t65.5 -13t65.5 13t53.5 36t36 53.5t13 65.5t-13 65.5t-36 53.5t-53.5 36.5t-65.5 13.5zM307 546q-24 0 -45 9t-36.5 24.5t-24.5 36t-9 44.5t9 45t24.5 36.5t36.5 24.5t45 9t44.5 -9
t36 -24.5t24.5 -36.5t9 -45t-9 -44.5t-24.5 -36t-36 -24.5t-44.5 -9zM307 702q-17 0 -29.5 -12.5t-12.5 -29.5t12.5 -29t29.5 -12t29 12t12 29t-12 29.5t-29 12.5z" />
    <glyph glyph-name="ccedilla" unicode="&#xe7;" horiz-adv-x="509" 
d="M461 349q-10 0 -17 3.5t-13 8.5q-29 25 -56 37.5t-64 12.5q-35 0 -65.5 -13.5t-53.5 -36.5t-36.5 -53.5t-13.5 -65.5t13.5 -65.5t36.5 -53.5t53.5 -36t65.5 -13q37 0 64 12.5t56 37.5q6 5 13 8.5t17 3.5q19 0 32 -13t13 -31q0 -10 -4 -17.5t-9 -13.5q-17 -18 -38.5 -32.5
t-45.5 -24t-49 -14.5t-49 -5q-53 0 -100 20.5t-82 55.5t-55.5 81.5t-20.5 99.5t20.5 100t55.5 82t82 55.5t100 20.5q24 0 49 -5t49 -14.5t45.5 -24t38.5 -32.5q5 -6 9 -13.5t4 -17.5q0 -18 -13 -31t-32 -13zM276 -159q-13 0 -26 5t-13 25q0 19 14.5 24t29.5 5q9 0 18 -0.5
t18 -0.5q8 0 17.5 1t9.5 12q0 8 -9 9t-15 1q-9 0 -17.5 -1.5t-17.5 -1.5q-13 0 -21.5 7t-8.5 21q0 8 4 20t9 24q5 11 11 24.5t15 33.5v-3q9 9 22 9t21.5 -8.5t8.5 -21.5q0 -8 -6.5 -23t-10.5 -23q26 -2 46 -15.5t20 -45.5q0 -29 -11.5 -44.5t-28.5 -22.5t-38.5 -8.5
t-40.5 -1.5z" />
    <glyph glyph-name="eacute" unicode="&#xe9;" horiz-adv-x="592" 
d="M523 219h-379q4 -31 18.5 -57.5t37 -46t51 -30.5t60.5 -11q19 0 34.5 3t29 9.5t27 16t29.5 21.5q6 5 12.5 8.5t17.5 3.5q19 0 32 -13t13 -31q0 -11 -4 -18t-9 -13q-16 -18 -37.5 -32.5t-46 -24t-50 -14.5t-48.5 -5q-53 0 -100 20.5t-82 55.5t-55.5 81.5t-20.5 99.5
t20.5 100t55.5 82t82 55.5t100 20.5q51 0 96 -17t80 -48.5t56 -75t24 -95.5q1 -20 -12.5 -32.5t-31.5 -12.5zM311 411q-52 0 -94 -28.5t-62 -74.5h311q-19 47 -61.5 75t-93.5 28zM278.983 568q18.998 0 30.998 13l89.9941 90q12.999 13 12.999 31t-12.999 31t-30.998 13
t-30.998 -13l-89.9951 -90q-12.999 -12 -12.999 -31q0 -18 12.999 -31q13 -13 30.999 -13z" />
    <glyph glyph-name="egrave" unicode="&#xe8;" horiz-adv-x="592" 
d="M523 219h-379q4 -31 18.5 -57.5t37 -46t51 -30.5t60.5 -11q19 0 34.5 3t29 9.5t27 16t29.5 21.5q6 5 12.5 8.5t17.5 3.5q19 0 32 -13t13 -31q0 -11 -4 -18t-9 -13q-16 -18 -37.5 -32.5t-46 -24t-50 -14.5t-48.5 -5q-53 0 -100 20.5t-82 55.5t-55.5 81.5t-20.5 99.5
t20.5 100t55.5 82t82 55.5t100 20.5q51 0 96 -17t80 -48.5t56 -75t24 -95.5q1 -20 -12.5 -32.5t-31.5 -12.5zM311 411q-52 0 -94 -28.5t-62 -74.5h311q-19 47 -61.5 75t-93.5 28zM303 568q-19 0 -31 13l-90 90q-13 13 -13 31t13 31t31 13t31 -13l90 -90q13 -12 13 -31
q0 -18 -13 -31t-31 -13z" />
    <glyph glyph-name="ecircumflex" unicode="&#xea;" horiz-adv-x="592" 
d="M523 219h-379q4 -31 18.5 -57.5t37 -46t51 -30.5t60.5 -11q19 0 34.5 3t29 9.5t27 16t29.5 21.5q6 5 12.5 8.5t17.5 3.5q19 0 32 -13t13 -31q0 -11 -4 -18t-9 -13q-16 -18 -37.5 -32.5t-46 -24t-50 -14.5t-48.5 -5q-53 0 -100 20.5t-82 55.5t-55.5 81.5t-20.5 99.5
t20.5 100t55.5 82t82 55.5t100 20.5q51 0 96 -17t80 -48.5t56 -75t24 -95.5q1 -20 -12.5 -32.5t-31.5 -12.5zM311 411q-52 0 -94 -28.5t-62 -74.5h311q-19 47 -61.5 75t-93.5 28zM402 561q-17 0 -29 12l-65 67l-65 -67q-12 -12 -29 -12t-28.5 12t-11.5 29t12 29l94 96
q10 12 28 12q17 0 29 -12l94 -96q11 -13 11 -29q0 -17 -11.5 -29t-28.5 -12z" />
    <glyph glyph-name="edieresis" unicode="&#xeb;" horiz-adv-x="592" 
d="M523 219h-379q4 -31 18.5 -57.5t37 -46t51 -30.5t60.5 -11q19 0 34.5 3t29 9.5t27 16t29.5 21.5q6 5 12.5 8.5t17.5 3.5q19 0 32 -13t13 -31q0 -11 -4 -18t-9 -13q-16 -18 -37.5 -32.5t-46 -24t-50 -14.5t-48.5 -5q-53 0 -100 20.5t-82 55.5t-55.5 81.5t-20.5 99.5
t20.5 100t55.5 82t82 55.5t100 20.5q51 0 96 -17t80 -48.5t56 -75t24 -95.5q1 -20 -12.5 -32.5t-31.5 -12.5zM311 411q-52 0 -94 -28.5t-62 -74.5h311q-19 47 -61.5 75t-93.5 28zM391 598q-24 0 -41.5 17.5t-17.5 41.5q0 25 17 42t42 17t42 -17t17 -42q0 -24 -17.5 -41.5
t-41.5 -17.5zM221 598q-24 0 -41.5 17.5t-17.5 41.5q0 25 17 42t42 17t42 -17t17 -42q0 -24 -17.5 -41.5t-41.5 -17.5z" />
    <glyph glyph-name="iacute" unicode="&#xed;" horiz-adv-x="278" 
d="M139.991 568q18.999 0 30.998 13l89.9951 90q12.999 13 12.999 31t-12.999 31q-13 13 -30.998 13q-17.999 0 -30.998 -13l-89.9951 -90q-12.999 -12 -12.999 -31q0 -18 12.999 -31t30.998 -13zM164 -15q-19 0 -32 13t-13 31v427q0 18 13 31t32 13q18 0 31 -13t13 -31
v-427q0 -18 -13 -31t-31 -13z" />
    <glyph glyph-name="igrave" unicode="&#xec;" horiz-adv-x="278" 
d="M149 568q-19 0 -31 13l-90 90q-13 13 -13 31t13 31t31 13t31 -13l90 -90q13 -12 13 -31q0 -18 -13 -31t-31 -13zM155 -15q-19 0 -32 13t-13 31v427q0 18 13 31t32 13q18 0 31 -13t13 -31v-427q0 -18 -13 -31t-31 -13z" />
    <glyph glyph-name="icircumflex" unicode="&#xee;" horiz-adv-x="269" 
d="M242 561q-17 0 -29 12l-65 67l-65 -67q-12 -12 -29 -12t-28.5 12t-11.5 29t12 29l94 96q10 12 28 12q17 0 29 -12l94 -96q11 -13 11 -29q0 -17 -11.5 -29t-28.5 -12zM155 -15q-19 0 -32 13t-13 31v427q0 18 13 31t32 13q18 0 31 -13t13 -31v-427q0 -18 -13 -31t-31 -13z
" />
    <glyph glyph-name="idieresis" unicode="&#xef;" horiz-adv-x="267" 
d="M229 598q-24 0 -41.5 17.5t-17.5 41.5q0 25 17 42t42 17t42 -17t17 -42q0 -24 -17.5 -41.5t-41.5 -17.5zM59 598q-24 0 -41.5 17.5t-17.5 41.5q0 25 17 42t42 17t42 -17t17 -42q0 -24 -17.5 -41.5t-41.5 -17.5zM153 -15q-19 0 -32 13t-13 31v427q0 18 13 31t32 13
q18 0 31 -13t13 -31v-427q0 -18 -13 -31t-31 -13z" />
    <glyph glyph-name="ntilde" unicode="&#xf1;" horiz-adv-x="518" 
d="M189 470q47 30 101 30q38 0 72 -14.5t59.5 -40t40 -59.5t14.5 -72v-285q0 -18 -13 -31t-31 -13q-19 0 -32 13t-13 31v285q0 20 -7.5 37.5t-21 31t-31 21t-37.5 7.5t-38 -7.5t-31 -21t-20.5 -31t-7.5 -37.5q0 -3 -2 -9v-276q0 -18 -13 -31t-31 -13q-19 0 -32 13t-13 31
v433q0 19 13 32t32 13q36 0 42 -37zM346 585q-19 0 -37.5 7t-35.5 15.5l-31 15.5t-24 7q-7 0 -12 -6t-11 -13.5t-14.5 -13.5t-20.5 -6q-17 0 -30 12t-13 29q0 11 6 22q15 24 39 41.5t53 17.5q19 0 37 -7t34.5 -15.5t30.5 -15.5t25 -7q7 0 12 5l10.5 10.5t12.5 10.5t19 5
q17 0 30 -12t13 -29q0 -14 -9.5 -27.5t-24 -23.5t-30.5 -16t-29 -6z" />
    <glyph glyph-name="oacute" unicode="&#xf3;" horiz-adv-x="600" 
d="M311 -15q-53 0 -100 20.5t-82 55.5t-55.5 81.5t-20.5 99.5t20.5 100t55.5 82t82 55.5t100 20.5t99.5 -20.5t81.5 -55.5t55.5 -82t20.5 -100t-20.5 -99.5t-55.5 -81.5t-81.5 -55.5t-99.5 -20.5zM311 411q-35 0 -65.5 -13.5t-53.5 -36.5t-36.5 -53.5t-13.5 -65.5
t13.5 -65.5t36.5 -53.5t53.5 -36t65.5 -13t65.5 13t53.5 36t36 53.5t13 65.5t-13.5 65.5t-36 53.5t-53.5 36.5t-65 13.5zM282.982 568q18.999 0 30.998 13l89.9951 90q12.999 13 12.999 31t-12.999 31t-30.998 13t-30.998 -13l-89.9951 -90q-12.999 -12 -12.999 -31
q0 -18 12.999 -31t30.998 -13z" />
    <glyph glyph-name="ograve" unicode="&#xf2;" horiz-adv-x="600" 
d="M311 -15q-53 0 -100 20.5t-82 55.5t-55.5 81.5t-20.5 99.5t20.5 100t55.5 82t82 55.5t100 20.5t99.5 -20.5t81.5 -55.5t55.5 -82t20.5 -100t-20.5 -99.5t-55.5 -81.5t-81.5 -55.5t-99.5 -20.5zM311 411q-35 0 -65.5 -13.5t-53.5 -36.5t-36.5 -53.5t-13.5 -65.5
t13.5 -65.5t36.5 -53.5t53.5 -36t65.5 -13t65.5 13t53.5 36t36 53.5t13 65.5t-13.5 65.5t-36 53.5t-53.5 36.5t-65 13.5zM306 568q-19 0 -31 13l-90 90q-13 13 -13 31t13 31t31 13t31 -13l90 -90q13 -12 13 -31q0 -18 -13 -31t-31 -13z" />
    <glyph glyph-name="ocircumflex" unicode="&#xf4;" horiz-adv-x="600" 
d="M311 -15q-53 0 -100 20.5t-82 55.5t-55.5 81.5t-20.5 99.5t20.5 100t55.5 82t82 55.5t100 20.5t99.5 -20.5t81.5 -55.5t55.5 -82t20.5 -100t-20.5 -99.5t-55.5 -81.5t-81.5 -55.5t-99.5 -20.5zM311 411q-35 0 -65.5 -13.5t-53.5 -36.5t-36.5 -53.5t-13.5 -65.5
t13.5 -65.5t36.5 -53.5t53.5 -36t65.5 -13t65.5 13t53.5 36t36 53.5t13 65.5t-13.5 65.5t-36 53.5t-53.5 36.5t-65 13.5zM402 561q-17 0 -29 12l-65 67l-65 -67q-12 -12 -29 -12t-28.5 12t-11.5 29t12 29l94 96q10 12 28 12q17 0 29 -12l94 -96q11 -13 11 -29
q0 -17 -11.5 -29t-28.5 -12z" />
    <glyph glyph-name="odieresis" unicode="&#xf6;" horiz-adv-x="600" 
d="M311 -15q-53 0 -100 20.5t-82 55.5t-55.5 81.5t-20.5 99.5t20.5 100t55.5 82t82 55.5t100 20.5t99.5 -20.5t81.5 -55.5t55.5 -82t20.5 -100t-20.5 -99.5t-55.5 -81.5t-81.5 -55.5t-99.5 -20.5zM311 411q-35 0 -65.5 -13.5t-53.5 -36.5t-36.5 -53.5t-13.5 -65.5
t13.5 -65.5t36.5 -53.5t53.5 -36t65.5 -13t65.5 13t53.5 36t36 53.5t13 65.5t-13.5 65.5t-36 53.5t-53.5 36.5t-65 13.5zM395 598q-24 0 -41.5 17.5t-17.5 41.5q0 25 17 42t42 17t42 -17t17 -42q0 -24 -17.5 -41.5t-41.5 -17.5zM225 598q-24 0 -41.5 17.5t-17.5 41.5
q0 25 17 42t42 17t42 -17t17 -42q0 -24 -17.5 -41.5t-41.5 -17.5z" />
    <glyph glyph-name="otilde" unicode="&#xf5;" horiz-adv-x="600" 
d="M311 -15q-53 0 -100 20.5t-82 55.5t-55.5 81.5t-20.5 99.5t20.5 100t55.5 82t82 55.5t100 20.5t99.5 -20.5t81.5 -55.5t55.5 -82t20.5 -100t-20.5 -99.5t-55.5 -81.5t-81.5 -55.5t-99.5 -20.5zM311 411q-35 0 -65.5 -13.5t-53.5 -36.5t-36.5 -53.5t-13.5 -65.5
t13.5 -65.5t36.5 -53.5t53.5 -36t65.5 -13t65.5 13t53.5 36t36 53.5t13 65.5t-13.5 65.5t-36 53.5t-53.5 36.5t-65 13.5zM369 585q-19 0 -37.5 7t-35.5 15.5l-31 15.5t-24 7q-7 0 -12 -6t-11 -13.5t-14.5 -13.5t-20.5 -6q-17 0 -30 12t-13 29q0 11 6 22q15 24 39 41.5
t53 17.5q19 0 37 -7t34.5 -15.5t30.5 -15.5t25 -7q7 0 12 5l10.5 10.5t12.5 10.5t19 5q17 0 30 -12t13 -29q0 -14 -9.5 -27.5t-24 -23.5t-30.5 -16t-29 -6z" />
    <glyph glyph-name="uacute" unicode="&#xfa;" horiz-adv-x="520" 
d="M277 -13q-41 0 -77.5 15.5t-63.5 42.5t-42.5 63.5t-15.5 77.5v265q0 19 13 32t32 13q18 0 31 -13t13 -32v-265q0 -23 8.5 -43t23.5 -35t35 -23.5t43 -8.5q22 0 42 8.5t35 23.5t24 35t9 43v265q0 19 13 32t31 13t31 -13t13 -32v-265q0 -41 -15.5 -77.5t-42.5 -63.5
t-63 -42.5t-77 -15.5zM255.984 568q18.999 0 30.998 13l89.9941 90q13 13 13 31t-13 31q-12.999 13 -30.998 13q-17.998 0 -30.998 -13l-89.9941 -90q-12.999 -12 -12.999 -31q0 -18 12.999 -31t30.998 -13z" />
    <glyph glyph-name="ugrave" unicode="&#xf9;" horiz-adv-x="520" 
d="M277 -13q-41 0 -77.5 15.5t-63.5 42.5t-42.5 63.5t-15.5 77.5v265q0 19 13 32t32 13q18 0 31 -13t13 -32v-265q0 -23 8.5 -43t23.5 -35t35 -23.5t43 -8.5q22 0 42 8.5t35 23.5t24 35t9 43v265q0 19 13 32t31 13t31 -13t13 -32v-265q0 -41 -15.5 -77.5t-42.5 -63.5
t-63 -42.5t-77 -15.5zM278 568q-19 0 -31 13l-90 90q-13 13 -13 31t13 31t31 13t31 -13l90 -90q13 -12 13 -31q0 -18 -13 -31t-31 -13z" />
    <glyph glyph-name="ucircumflex" unicode="&#xfb;" horiz-adv-x="520" 
d="M277 -13q-41 0 -77.5 15.5t-63.5 42.5t-42.5 63.5t-15.5 77.5v265q0 19 13 32t32 13q18 0 31 -13t13 -32v-265q0 -23 8.5 -43t23.5 -35t35 -23.5t43 -8.5q22 0 42 8.5t35 23.5t24 35t9 43v265q0 19 13 32t31 13t31 -13t13 -32v-265q0 -41 -15.5 -77.5t-42.5 -63.5
t-63 -42.5t-77 -15.5zM364 561q-17 0 -29 12l-65 67l-65 -67q-12 -12 -29 -12t-28.5 12t-11.5 29t12 29l94 96q10 12 28 12q17 0 29 -12l94 -96q11 -13 11 -29q0 -17 -11.5 -29t-28.5 -12z" />
    <glyph glyph-name="udieresis" unicode="&#xfc;" horiz-adv-x="520" 
d="M277 -13q-41 0 -77.5 15.5t-63.5 42.5t-42.5 63.5t-15.5 77.5v265q0 19 13 32t32 13q18 0 31 -13t13 -32v-265q0 -23 8.5 -43t23.5 -35t35 -23.5t43 -8.5q22 0 42 8.5t35 23.5t24 35t9 43v265q0 19 13 32t31 13t31 -13t13 -32v-265q0 -41 -15.5 -77.5t-42.5 -63.5
t-63 -42.5t-77 -15.5zM355 598q-24 0 -41.5 17.5t-17.5 41.5q0 25 17 42t42 17t42 -17t17 -42q0 -24 -17.5 -41.5t-41.5 -17.5zM185 598q-24 0 -41.5 17.5t-17.5 41.5q0 25 17 42t42 17t42 -17t17 -42q0 -24 -17.5 -41.5t-41.5 -17.5z" />
    <glyph glyph-name="dagger" unicode="&#x2020;" horiz-adv-x="331" 
d="M291 411h-81v-495q0 -19 -13 -32t-32 -13q-18 0 -31 13t-13 32v495h-82q-18 0 -31 13t-13 31q0 19 13 32t31 13h82v245q0 18 13 31t31 13q19 0 32 -13t13 -31v-245h81q19 0 32 -13t13 -32q0 -18 -13 -31t-32 -13z" />
    <glyph glyph-name="degree" unicode="&#xb0;" horiz-adv-x="263" 
d="M144 590q-24 0 -45 9t-36.5 24.5t-24.5 36t-9 44.5t9 45t24.5 36.5t36.5 24.5t45 9t44.5 -9t36 -24.5t24.5 -36.5t9 -45t-9 -44.5t-24.5 -36t-36 -24.5t-44.5 -9zM144 746q-17 0 -29.5 -12.5t-12.5 -29.5t12.5 -29t29.5 -12t29 12t12 29t-12 29.5t-29 12.5z" />
    <glyph glyph-name="cent" unicode="&#xa2;" horiz-adv-x="509" 
d="M447 349q-10 0 -17 3.5t-13 8.5q-20 17 -38 28t-38 17v-327q20 6 38 17t38 28q6 5 13 8.5t17 3.5q19 0 32 -13t13 -31q0 -10 -4 -17.5t-9 -13.5q-26 -29 -63 -47t-75 -25v-37q0 -19 -13 -32t-31 -13q-19 0 -32 13t-13 32v37q-45 8 -84 30.5t-67.5 56.5t-45 76.5
t-16.5 89.5q0 48 16.5 90.5t45 76t67.5 56.5t84 31v41q0 19 13 32t32 13q18 0 31 -13t13 -32v-41q38 -7 75 -25t63 -47q5 -6 9 -13.5t4 -17.5q0 -18 -13 -31t-32 -13zM252 405q-27 -7 -49.5 -22.5t-39 -37t-26 -48t-9.5 -55.5t9.5 -55t26 -47.5t39 -37t49.5 -22.5v325z" />
    <glyph glyph-name="sterling" unicode="&#xa3;" horiz-adv-x="641" 
d="M244 411q10 -63 14.5 -113t1 -90t-16 -72.5t-37.5 -61.5h330q18 0 31 -13t13 -32q0 -18 -13 -31t-31 -13h-453q-14 0 -25.5 9t-16.5 23t0.5 27.5t17.5 21.5q44 29 69.5 54t35.5 59.5t7 86t-15 135.5l-2 10h-71q-18 0 -31 13t-13 31q0 19 13 32t31 13h67q4 69 25.5 116
t46.5 76q35 42 84 65.5t99 23.5h131q18 0 31 -13t13 -31q0 -19 -13 -32t-31 -13h-131q-23 0 -55.5 -13t-60.5 -45q-17 -20 -32 -52t-18 -82h167q18 0 31 -13t13 -32q0 -18 -13 -31t-31 -13h-162z" />
    <glyph glyph-name="bullet" unicode="&#x2022;" horiz-adv-x="246" 
d="M201 243q0 -32 -23 -55t-55 -23t-55 23t-23 55q0 33 22.5 55t55.5 22q32 0 55 -22t23 -55z" />
    <glyph glyph-name="paragraph" unicode="&#xb6;" horiz-adv-x="545" 
d="M323 29q0 -12 -8.5 -20.5t-21.5 -8.5q-12 0 -20.5 8.5t-8.5 20.5v260q-44 6 -82.5 26.5t-67 52.5t-44.5 72.5t-16 86.5q0 49 19 93t51 76t75.5 51t93.5 19h124q12 0 20.5 -8.5t8.5 -20.5v-708q0 -12 -8.5 -20.5t-20.5 -8.5t-20.5 8.5t-8.5 20.5v678h-65v-390v-288z" />
    <glyph glyph-name="germandbls" unicode="&#xdf;" horiz-adv-x="564" 
d="M268 -14q-18 0 -31 13t-13 31q0 19 13 32t31 13q35 0 65.5 13t53.5 36t36 53.5t13 65.5t-13 65.5t-36 53.5t-53.5 36t-65.5 13q-18 0 -31 13t-13 31q0 19 13 32t31 13q40 0 68 28t28 68t-28 68t-68 28t-68 -28t-28 -68v-567q0 -18 -13 -31t-31 -13q-19 0 -32 13t-13 31
v567q0 38 14.5 72t39.5 59t59 39.5t72 14.5t72 -14.5t59 -39.5t39.5 -59t14.5 -72t-14.5 -71.5t-40.5 -59.5q59 -35 93 -94t34 -128q0 -53 -20 -100t-55 -82t-82 -55t-100 -20z" />
    <glyph glyph-name="registered" unicode="&#xae;" horiz-adv-x="507" 
d="M253 326q-47 0 -88 18t-71.5 48.5t-48.5 72t-18 88.5q0 46 18 87.5t48.5 72t71.5 48.5t88 18t88.5 -18t72 -48.5t48.5 -72t18 -87.5q0 -47 -18 -88.5t-48.5 -72t-72 -48.5t-88.5 -18zM253 729q-36 0 -68 -14t-56 -38t-38 -56t-14 -68q0 -37 14 -69t38 -56t56 -38t68 -14
q37 0 69 14t56 38t38 56t14 69q0 36 -14 68t-38 56t-56 38t-69 14zM283 532q8 -14 16.5 -28.5t15 -27.5l11 -22t4.5 -12q0 -9 -6 -15.5t-15 -6.5q-11 0 -18 11l-55 99h-1v-88q0 -9 -6 -15.5t-14 -6.5q-9 0 -15 6.5t-6 15.5v218q0 9 6 15.5t15 6.5h52q16 0 29 -6.5t23 -17
t15.5 -24t5.5 -28.5q0 -25 -15 -45.5t-42 -28.5zM267 639h-32v-67h32q14 0 23 10t9 24q0 13 -9 23t-23 10z" />
    <glyph glyph-name="copyright" unicode="&#xa9;" horiz-adv-x="507" 
d="M253 326q-47 0 -88 18t-71.5 48.5t-48.5 72t-18 88.5q0 46 18 87.5t48.5 72t71.5 48.5t88 18t88.5 -18t72 -48.5t48.5 -72t18 -87.5q0 -47 -18 -88.5t-48.5 -72t-72 -48.5t-88.5 -18zM253 729q-36 0 -68 -14t-56 -38t-38 -56t-14 -68q0 -37 14 -69t38 -56t56 -38t68 -14
q37 0 69 14t56 38t38 56t14 69q0 36 -14 68t-38 56t-56 38t-69 14zM327 602q-4 0 -7.5 2t-7.5 4q-3 2 -6.5 5t-8.5 6q-8 5 -19 10t-27 5q-35 0 -59.5 -24.5t-24.5 -59.5t24.5 -59.5t59.5 -24.5q16 0 27 4.5t19 10.5q5 3 8.5 6t6.5 5q4 2 7.5 4t7.5 2q11 0 18 -7.5t7 -17.5
t-7 -17q-16 -20 -43 -30t-51 -10q-28 0 -52 10.5t-42 28.5t-28.5 42.5t-10.5 52.5q0 27 10.5 51.5t28.5 43t42 29t52 10.5q24 0 51 -10t43 -30q7 -9 7 -17q0 -11 -7 -18t-18 -7z" />
    <glyph glyph-name="trademark" unicode="&#x2122;" horiz-adv-x="413" 
d="M349 579q-8 0 -14 5.5t-6 13.5v82l-46 -91q-5 -10 -17 -10t-17 10l-46 91v-82q0 -8 -5.5 -13.5t-13.5 -5.5t-14 5.5t-6 13.5v162q0 8 6 13.5t14 5.5q10 0 17 -10l65 -129l66 129q5 10 17 10q8 0 13.5 -5.5t5.5 -13.5v-162q0 -8 -5.5 -13.5t-13.5 -5.5zM134 743h-30v-145
q0 -8 -6 -13.5t-14 -5.5t-13.5 5.5t-5.5 13.5v145h-30q-8 0 -13.5 5.5t-5.5 13.5t5.5 13.5t13.5 5.5h99q8 0 13.5 -5.5t5.5 -13.5t-5.5 -13.5t-13.5 -5.5z" />
    <glyph glyph-name="acute" unicode="&#xb4;" horiz-adv-x="212" 
d="M182 724l-90 -90q-12 -13 -31 -13q-18 0 -31 13t-13 31t13 31l90 90q13 13 31 13t31 -13t13 -31q0 -19 -13 -31z" />
    <glyph glyph-name="dieresis" unicode="&#xa8;" horiz-adv-x="322" 
d="M246 598q-24 0 -41.5 17.5t-17.5 41.5q0 25 17 42t42 17t42 -17t17 -42q0 -24 -17.5 -41.5t-41.5 -17.5zM76 598q-24 0 -41.5 17.5t-17.5 41.5q0 25 17 42t42 17t42 -17t17 -42q0 -24 -17.5 -41.5t-41.5 -17.5z" />
    <glyph glyph-name="notequal" unicode="&#x2260;" horiz-adv-x="661" 
d="M578 95h-252l-68 -165q-5 -14 -16 -21t-25 -7q-23 0 -36.5 19t-4.5 42l54 132h-147q-18 0 -31 13t-13 31q0 19 13 32t31 13h183l51 125h-234q-18 0 -31 13t-13 31q0 19 13 32t31 13h270l61 151q7 17 24 24.5t34 -0.5q17 -7 24 -23.5t0 -33.5l-48 -118h130q19 0 31.5 -13
t12.5 -32q0 -18 -12.5 -31t-31.5 -13h-166l-50 -125h216q19 0 31.5 -13t12.5 -32q0 -18 -13 -31t-31 -13z" />
    <glyph glyph-name="AE" unicode="&#xc6;" horiz-adv-x="1092" 
d="M1009 -15h-345q-14 0 -25 7.5t-16 19.5l-79 186h-363l-79 -186q-5 -12 -16 -19.5t-25 -7.5q-18 0 -31 13t-13 31q0 10 4 18l301 707q5 12 16 19.5t25 7.5h606q18 0 31 -13t13 -31t-13 -31t-31 -13h-539l111 -262h420q18 0 31 -13t13 -31t-13 -31t-31 -13h-382l114 -269
h316q18 0 31 -13t13 -32q0 -18 -13 -31t-31 -13zM363 623l-144 -336h287z" />
    <glyph glyph-name="Oslash" unicode="&#xd8;" horiz-adv-x="912" 
d="M456 -15q-54 0 -100 13l-44 -109q-5 -13 -16.5 -20.5t-24.5 -7.5q-23 0 -36.5 19t-4.5 42l43 108q-47 25 -86 61.5t-67 81.5t-43.5 97.5t-15.5 109.5q0 81 31 153t84.5 125.5t125.5 84.5t154 31q56 0 109 -15l40 99q7 17 23.5 24t33.5 0t24.5 -24t0.5 -34l-40 -99
q45 -26 82.5 -62t64.5 -80.5t41.5 -96t14.5 -106.5q0 -82 -31 -154t-84.5 -125.5t-125.5 -84.5t-153 -31zM614 642l-225 -561q34 -8 67 -8q63 0 119 24t97.5 66t65.5 98t24 119q0 84 -40.5 152.5t-107.5 109.5zM456 686q-63 0 -119 -24t-98 -65.5t-66 -97.5t-24 -119
q0 -87 43.5 -157.5t113.5 -110.5l226 564q-18 5 -37 7.5t-39 2.5z" />
    <glyph glyph-name="infinity" unicode="&#x221e;" horiz-adv-x="1180" 
d="M880 -15q-51 0 -95 18.5t-81 46t-66 59t-48 57.5q-20 -26 -48.5 -57.5t-65.5 -59t-81 -46t-95 -18.5q-54 0 -101.5 20.5t-83 56t-56 83t-20.5 101.5t20.5 101.5t56 83t83 56t101.5 20.5q51 0 95 -18.5t81 -46t65.5 -59t48.5 -57.5q19 26 48 57.5t66 59t81 46t95 18.5
q54 0 101.5 -20.5t83 -56t56 -83t20.5 -101.5t-20.5 -101.5t-56 -83t-83 -56t-101.5 -20.5zM880 418q-41 0 -78.5 -19.5t-68.5 -46.5t-54.5 -56.5t-36.5 -49.5q13 -20 36.5 -49.5t54.5 -56.5t68.5 -46.5t78.5 -19.5q36 0 67 13.5t54.5 37t37 54.5t13.5 67t-13.5 67t-37 54.5
t-54.5 37t-67 13.5zM300 418q-36 0 -67 -13.5t-54.5 -37t-37 -54.5t-13.5 -67t13.5 -67t37 -54.5t54.5 -37t67 -13.5q41 0 78.5 19.5t68.5 46.5t54 56.5t37 49.5q-14 20 -37 49.5t-54 56.5t-68.5 46.5t-78.5 19.5z" />
    <glyph glyph-name="plusminus" unicode="&#xb1;" horiz-adv-x="596" 
d="M542 333q-13 -13 -31 -13h-169v-169q0 -19 -13 -31.5t-32 -12.5q-18 0 -31 12.5t-13 31.5v169h-170q-18 0 -31 13t-13 32q0 18 13 31t31 13h170v169q0 19 13 32t31 13q19 0 32 -13t13 -32v-169h169q18 0 31 -13t13 -31q0 -19 -13 -32zM513 -15h-427q-18 0 -31 13t-13 31
q0 19 13 32t31 13h427q18 0 31 -13t13 -32q0 -18 -13 -31t-31 -13z" />
    <glyph glyph-name="lessequal" unicode="&#x2264;" horiz-adv-x="539" 
d="M434 108q-12 0 -24 7l-338 213q-20 13 -20 38q0 24 20 37l338 213q10 7 24 7q18 0 31 -13t13 -31q0 -25 -21 -38l-278 -175l278 -176q21 -13 21 -37q0 -19 -13 -32t-31 -13zM434 -15h-351q-18 0 -31 13t-13 31q0 19 13 32t31 13h351q18 0 31 -13t13 -32q0 -18 -13 -31
t-31 -13z" />
    <glyph glyph-name="greaterequal" unicode="&#x2265;" horiz-adv-x="527" 
d="M467 328l-338 -213q-12 -7 -23 -7q-19 0 -32 13t-13 32q0 24 21 37l278 176l-278 175q-21 13 -21 38q0 18 13 31t32 13q13 0 23 -7l338 -213q21 -13 21 -37q0 -25 -21 -38zM438 -15h-332q-19 0 -32 13t-13 31q0 19 13 32t32 13h332q18 0 31 -13t13 -32q0 -18 -13 -31
t-31 -13z" />
    <glyph glyph-name="yen" unicode="&#xa5;" horiz-adv-x="585" 
d="M565 708l-227 -406v-273q0 -18 -13 -31t-31 -13t-31 13t-13 31v273l-227 406q-6 10 -6 22q0 18 13 31t31 13q12 0 22.5 -6t16.5 -16l194 -347l194 347q6 10 16.5 16t22.5 6q18 0 31 -13t13 -31q0 -12 -6 -22zM553 300h-495q-18 0 -31 13t-13 31q0 19 13 32t31 13h495
q19 0 31.5 -13t12.5 -32q0 -18 -12.5 -31t-31.5 -13zM553 86h-495q-18 0 -31 13t-13 31q0 19 13 32t31 13h495q19 0 31.5 -13t12.5 -32q0 -18 -12.5 -31t-31.5 -13z" />
    <glyph glyph-name="mu" unicode="&#xb5;" horiz-adv-x="564" 
d="M393 19q-24 -16 -52 -25t-59 -9t-59 8.5t-51 24.5v-213q0 -19 -13 -32t-31 -13q-19 0 -32 13t-13 32v379v265v7q0 18 13 31t32 13q18 0 31 -13t13 -31v-7v-265q0 -23 8.5 -43t23.5 -35t35 -23.5t43 -8.5q22 0 42 8.5t35 23.5t24 34.5t9 42.5v266v7q0 18 13 31t31 13
q19 0 31.5 -13t12.5 -31v-7v-265v-155q0 -18 -12.5 -31t-31.5 -13q-16 0 -27.5 10t-15.5 24z" />
    <glyph glyph-name="summation" unicode="&#x2211;" horiz-adv-x="807" 
d="M724 -15h-618q-14 0 -25.5 7.5t-16.5 20.5t-2 26.5t13 22.5l348 321l-348 321q-21 21 -11 49q5 13 16.5 20.5t25.5 7.5h618q18 0 31 -13t13 -31q0 -19 -13 -32t-31 -13h-505l300 -276q14 -14 14 -33t-14 -33l-300 -276h505q18 0 31 -13t13 -32q0 -18 -13 -31t-31 -13z
" />
    <glyph glyph-name="pi" unicode="&#x3c0;" horiz-adv-x="689" 
d="M584 417h-62v-271q0 -26 17.5 -43.5t43.5 -17.5q18 0 31.5 -13t13.5 -31t-12.5 -31t-31.5 -13q-31 0 -58.5 11.5t-47.5 32t-32 47.5t-12 58v271h-182v-376q0 -19 -13 -31.5t-31 -12.5q-19 0 -31.5 12.5t-12.5 31.5v376h-59q-18 0 -31 12.5t-13 31.5q0 18 13 31t31 13h479
q19 0 31.5 -13t12.5 -31q0 -19 -12.5 -31.5t-31.5 -12.5z" />
    <glyph glyph-name="integral" unicode="&#x222b;" horiz-adv-x="431" 
d="M325 695q-18 10 -33 1q-14 -8 -23 -29t-9 -55v-575q0 -49 -13 -86.5t-40 -61.5q-20 -17 -44.5 -25.5t-53.5 -8.5q-16 0 -31 3q-19 2 -30 16.5t-9 32.5q3 19 17.5 30t32.5 9q23 -3 37 0t22 10q14 11 18.5 34.5t4.5 46.5v575q0 54 19.5 96.5t57.5 64.5q29 17 61 16t61 -18
q16 -9 20.5 -26.5t-5.5 -33.5q-9 -17 -26.5 -21.5t-33.5 5.5z" />
    <glyph glyph-name="Omega" unicode="&#x2126;" horiz-adv-x="918" 
d="M813 -15h-204q-16 0 -28 9.5t-15 24.5q-4 15 2.5 29t20.5 21q41 20 74 51t56.5 70t36.5 83.5t13 92.5q0 68 -24.5 127.5t-66.5 103.5t-98.5 69.5t-120.5 25.5t-120 -25.5t-98 -69.5t-66.5 -103.5t-24.5 -127.5q0 -48 13 -92.5t36 -83.5t56 -70t74 -51q14 -7 21 -21t3 -29
t-16 -24.5t-27 -9.5h-204q-19 0 -32 13t-13 31q0 19 13 32t32 13h70q-54 57 -84.5 132.5t-30.5 159.5q0 85 31 161t85 132t126.5 89t155.5 33q82 0 154.5 -33t126.5 -89t85.5 -132t31.5 -161q0 -84 -30 -159.5t-85 -132.5h71q18 0 31 -13t13 -32q0 -18 -13 -31t-31 -13z" />
    <glyph glyph-name="ae" unicode="&#xe6;" horiz-adv-x="956" 
d="M872 219h-379q4 -31 19 -57.5t37.5 -46t50.5 -30.5t60 -11q20 0 35.5 3t29 9.5t27 16t29.5 21.5q6 5 12.5 8.5t17.5 3.5q18 0 31 -13t13 -31q0 -17 -12 -31q-16 -18 -37.5 -32.5t-46.5 -24t-50.5 -14.5t-48.5 -5q-48 0 -96 18.5t-82 55.5v-28q0 -18 -12 -32t-33 -14h-237
q-33 0 -62.5 13t-51 34.5t-34.5 51t-13 62.5t13 62.5t34.5 51.5t51 35t62.5 13h190q-20 46 -62.5 74.5t-93.5 28.5q-20 0 -35 -3t-28.5 -9.5t-27 -16t-29.5 -21.5q-6 -5 -13 -8.5t-18 -3.5q-18 0 -31 13t-13 31q0 10 3.5 17.5t8.5 13.5q16 18 38 32.5t46.5 24t50 14.5
t48.5 5q65 0 121.5 -30t91.5 -83q36 53 92.5 83t120.5 30q51 0 97 -17t80.5 -48.5t55.5 -75t24 -95.5q1 -20 -12.5 -32.5t-32.5 -12.5zM660 411q-51 0 -93 -28.5t-62 -74.5h311q-20 47 -62 75t-94 28zM403 219h-203q-29 0 -50.5 -21.5t-21.5 -51.5t21.5 -51t50.5 -21h203
v145z" />
    <glyph glyph-name="oslash" unicode="&#xf8;" horiz-adv-x="600" 
d="M300 -17q-13 0 -25.5 1.5t-24.5 3.5l-24 -58q-5 -14 -16 -21t-25 -7q-23 0 -36.5 19t-4.5 42l23 57q-57 34 -92.5 93t-35.5 131q0 54 20.5 101.5t56 83t83 56t101.5 20.5q33 0 61 -7l21 51q7 17 24 24.5t34 -0.5q17 -7 24 -23.5t0 -33.5l-21 -54q54 -35 86 -92t32 -126
q0 -54 -20.5 -101.5t-56 -83t-83 -56t-101.5 -20.5zM408 378l-123 -305q5 -1 15 -1q36 0 67 13.5t54.5 37t37 54.5t13.5 67q0 41 -17.5 75.5t-46.5 58.5zM300 416q-36 0 -67 -13.5t-54.5 -37t-37 -54.5t-13.5 -67q0 -44 20 -80.5t53 -60.5l126 311q-7 2 -13.5 2h-13.5z" />
    <glyph glyph-name="questiondown" unicode="&#xbf;" horiz-adv-x="594" 
d="M339 689q-17 -17 -42 -17t-42 17t-17 41q0 25 17 42t42 17q24 0 41.5 -17t17.5 -42q0 -24 -17 -41zM475 56q-39 -37 -87.5 -55t-102.5 -16q-50 2 -93.5 22.5t-76.5 53.5t-53.5 76.5t-22.5 93.5q-3 75 32.5 138.5t101.5 99.5q11 5 19.5 10t16.5 10q22 13 32.5 26.5
t10.5 41.5q0 18 13 31t32 13q18 0 31 -13t13 -31q0 -33 -9.5 -57.5t-26 -43.5t-39.5 -34.5t-50 -30.5q-43 -23 -66.5 -65t-21.5 -91q1 -32 14.5 -61t35 -50.5t50.5 -35t61 -14.5q73 -3 124 46q53 51 53 123q0 18 13 31t31 13q19 0 31.5 -13t12.5 -31q0 -54 -20.5 -102
t-58.5 -85z" />
    <glyph glyph-name="exclamdown" unicode="&#xa1;" horiz-adv-x="285" 
d="M184 682q-17 -17 -41.5 -17t-41.5 17q-18 16 -18 42q0 25 17.5 42t41.5 17q25 0 42 -17t17 -42t-17 -42zM142 -15q-18 0 -31 13t-13 31v522q0 18 13 31t31 13q19 0 32 -13t13 -31v-522q0 -18 -13 -31t-32 -13z" />
    <glyph glyph-name="logicalnot" unicode="&#xac;" horiz-adv-x="776" 
d="M603 243v197h-497q-23 0 -34 14t-11 31t11 31t34 14h542q18 0 31.5 -13.5t13.5 -31.5v-242q0 -23 -14 -34t-31 -11t-31 11t-14 34z" />
    <glyph glyph-name="radical" unicode="&#x221a;" horiz-adv-x="624" 
d="M464 398q-23 -65 -46 -128.5t-41.5 -116t-32 -89.5t-17.5 -48q-3 -9 -11.5 -20t-25.5 -11q-15 0 -24 9.5t-13 17.5l-101 220h-73q-17 0 -28.5 11.5t-11.5 28.5t11.5 28.5t28.5 11.5h98q10 0 21 -7.5t16 -16.5l71 -153l222 627q4 12 13.5 19.5t23.5 7.5q15 0 28 -10.5
t13 -28.5q0 -4 -10.5 -35.5t-27.5 -80.5t-39 -110.5t-44 -125.5z" />
    <glyph glyph-name="florin" unicode="&#x192;" horiz-adv-x="632" 
d="M549 493h-78q-26 0 -45.5 -16t-24.5 -42l-12 -64h107q18 0 31 -12.5t13 -31.5q0 -18 -13 -31t-31 -13h-123l-43 -233q-8 -45 -30.5 -82.5t-55.5 -64.5t-74.5 -42.5t-86.5 -15.5q-18 0 -31 12.5t-13 31.5q0 18 13 31t31 13q30 0 56.5 10t48 27.5t36 42t19.5 53.5l40 217
h-12q-18 0 -31 13t-13 31q0 19 13 31.5t31 12.5h28l15 80q5 28 19.5 52.5t35.5 41.5t47 27t55 10h78q18 0 31 -13t13 -31q0 -19 -13 -32t-31 -13z" />
    <glyph glyph-name="Delta" unicode="&#x2206;" horiz-adv-x="525" 
d="M445 -15h-365q-24 0 -35 17t-2 39l183 425q6 14 16 21t20.5 7t20.5 -7t16 -21l183 -425q9 -22 -2 -39t-35 -17zM262 349l-121 -284h243z" />
    <glyph glyph-name="guillemotleft" unicode="&#xab;" horiz-adv-x="703" 
d="M620 -15q-13 0 -24 7l-338 213q-20 13 -20 38q0 24 20 37l338 213q16 10 33.5 6t27.5 -20q10 -15 6 -33t-19 -28l-279 -175l279 -176q15 -10 19 -27.5t-6 -33.5q-13 -21 -37 -21zM388 -15q-13 0 -23 7l-338 213q-21 13 -21 38q0 24 21 37l338 213q15 10 33 6t28 -20
q10 -15 6 -33t-20 -28l-278 -175l278 -176q16 -10 20 -27.5t-6 -33.5q-15 -21 -38 -21z" />
    <glyph glyph-name="guillemotright" unicode="&#xbb;" horiz-adv-x="703" 
d="M677 205l-338 -213q-11 -7 -24 -7q-11 0 -21 5.5t-16 15.5q-10 16 -6 33.5t19 27.5l279 176l-279 175q-15 10 -19 28t6 33q10 16 27.5 20t33.5 -6l338 -213q20 -12 20 -37q0 -26 -20 -38zM445 205l-338 -213q-10 -7 -23 -7q-25 0 -38 21q-10 16 -6 33.5t20 27.5l278 176
l-278 175q-16 10 -20 28t6 33q10 16 27.5 20t33.5 -6l338 -213q21 -13 21 -37q0 -25 -21 -38z" />
    <glyph glyph-name="ellipsis" unicode="&#x2026;" horiz-adv-x="634" 
d="M492 -15q-24 0 -41.5 17.5t-17.5 41.5q0 25 17.5 41.5t41.5 16.5q25 0 42 -16.5t17 -41.5q0 -24 -17 -41.5t-42 -17.5zM312 -15q-24 0 -41.5 17.5t-17.5 41.5q0 25 17.5 41.5t41.5 16.5q25 0 42 -16.5t17 -41.5q0 -24 -17 -41.5t-42 -17.5zM142 -15q-24 0 -41.5 17.5
t-17.5 41.5q0 25 17.5 41.5t41.5 16.5q25 0 42 -16.5t17 -41.5q0 -24 -17 -41.5t-42 -17.5z" />
    <glyph glyph-name="Agrave" unicode="&#xc0;" horiz-adv-x="725" 
d="M693 -11q-8 -4 -17 -4q-13 0 -24.5 7t-16.5 20l-79 186h-363l-79 -186q-7 -17 -24 -24t-34 1q-17 7 -24 24t1 34l90 213l211 494q5 13 16 20t25 7q13 0 24 -7t16 -20q76 -178 151 -353.5t151 -353.5q7 -17 0 -34t-24 -24zM375 623l-144 -336h287zM365 795q-19 0 -31 13
l-90 90q-13 13 -13 31t13 31t31 13t31 -13l90 -90q13 -12 13 -31q0 -18 -13 -31t-31 -13z" />
    <glyph glyph-name="Atilde" unicode="&#xc3;" horiz-adv-x="725" 
d="M693 -11q-8 -4 -17 -4q-13 0 -24.5 7t-16.5 20l-79 186h-363l-79 -186q-7 -17 -24 -24t-34 1q-17 7 -24 24t1 34l90 213l211 494q5 13 16 20t25 7q13 0 24 -7t16 -20q76 -178 151 -353.5t151 -353.5q7 -17 0 -34t-24 -24zM375 623l-144 -336h287zM431 834q-19 0 -37.5 7
t-35.5 15.5l-31 15.5t-24 7q-7 0 -12 -6t-11 -13.5t-14.5 -13.5t-20.5 -6q-17 0 -30 12t-13 29q0 11 6 22q15 24 39 41.5t53 17.5q19 0 37 -7t34.5 -15.5t30.5 -15.5t25 -7q7 0 12 5l10.5 10.5t12.5 10.5t19 5q17 0 30 -12t13 -29q0 -14 -9.5 -27.5t-24 -23.5t-30.5 -16
t-29 -6z" />
    <glyph glyph-name="Otilde" unicode="&#xd5;" horiz-adv-x="912" 
d="M466 -15q-82 0 -154 31t-125.5 84.5t-84.5 125.5t-31 154q0 81 31 153t84.5 125.5t125.5 84.5t154 31q81 0 153 -31t125.5 -84.5t84.5 -125.5t31 -153q0 -82 -31 -154t-84.5 -125.5t-125.5 -84.5t-153 -31zM466 686q-63 0 -119 -24t-98 -65.5t-66 -97.5t-24 -119t24 -119
t66 -98t98 -66t119 -24t119 24t97.5 66t65.5 98t24 119t-24 119t-65.5 97.5t-97.5 65.5t-119 24zM524 834q-19 0 -37.5 7t-35.5 15.5l-31 15.5t-24 7q-7 0 -12 -6t-11 -13.5t-14.5 -13.5t-20.5 -6q-17 0 -30 12t-13 29q0 11 6 22q15 24 39 41.5t53 17.5q19 0 37 -7
t34.5 -15.5t30.5 -15.5t25 -7q7 0 12 5l10.5 10.5t12.5 10.5t19 5q17 0 30 -12t13 -29q0 -14 -9.5 -27.5t-24 -23.5t-30.5 -16t-29 -6z" />
    <glyph glyph-name="OE" unicode="&#x152;" horiz-adv-x="866" 
d="M782 -15h-225h-120q-82 0 -154.5 31.5t-126.5 85.5t-85.5 126.5t-31.5 154.5t31 154t84.5 126t125.5 85.5t154 32.5h57h291q19 0 31.5 -13t12.5 -31q0 -19 -12.5 -31.5t-31.5 -12.5h-300v-265h253q18 0 31 -13t13 -32q0 -18 -13 -31t-31 -13h-253v-265h300q19 0 31.5 -13
t12.5 -31q0 -19 -12.5 -32t-31.5 -13zM393 689q-57 -8 -105.5 -35.5t-84 -68t-55.5 -92.5t-20 -110t20 -110t55.5 -92.5t84 -68t105.5 -35.5v612z" />
    <glyph glyph-name="oe" unicode="&#x153;" horiz-adv-x="1025" 
d="M942 219h-380q4 -31 19 -57.5t37.5 -46t50.5 -30.5t60 -11t53.5 8.5t37.5 19.5q9 6 16 11.5t13 10.5q7 4 14.5 8t16.5 4q18 0 31 -13t13 -31q0 -17 -12 -31q-16 -19 -37.5 -33t-46.5 -23.5t-50.5 -14.5t-48.5 -5q-64 0 -120.5 30t-92.5 83q-36 -54 -93 -84.5t-123 -30.5
q-54 0 -101.5 20.5t-83 56t-56 83t-20.5 101.5t20.5 101.5t56 83t83 56t101.5 20.5q66 0 123.5 -31.5t93.5 -85.5q36 52 92 82t120 30q52 0 97.5 -17t80 -48t55.5 -74.5t24 -96.5q1 -20 -12.5 -32.5t-31.5 -12.5zM729 411q-51 0 -93 -28.5t-62 -74.5h311q-20 47 -62 75
t-94 28zM300 416q-36 0 -67 -13.5t-54.5 -37t-37 -54.5t-13.5 -67t13.5 -67t37 -54.5t54.5 -37t67 -13.5t67 13.5t54.5 37t37 54.5t13.5 67t-13.5 67.5t-36.5 54.5t-54.5 36.5t-67.5 13.5z" />
    <glyph glyph-name="endash" unicode="&#x2013;" horiz-adv-x="473" 
d="M412 198h-351q-18 0 -31 13t-13 32q0 18 13 31t31 13h351q18 0 31 -13t13 -31q0 -19 -13 -32t-31 -13z" />
    <glyph glyph-name="emdash" unicode="&#x2014;" horiz-adv-x="865" 
d="M803 198h-742q-18 0 -31 13t-13 32q0 18 13 31t31 13h742q19 0 31.5 -13t12.5 -31q0 -19 -12.5 -32t-31.5 -13z" />
    <glyph glyph-name="quotedblleft" unicode="&#x201c;" horiz-adv-x="295" 
d="M266 719q-14 -14 -21 -25t-7 -29v-10q14 -6 22 -18t8 -27q0 -21 -14.5 -35t-34.5 -14q-25 0 -37.5 16.5t-12.5 38.5v49q0 32 14 59.5t40 47.5q12 7 22 7q14 0 23.5 -9.5t9.5 -23.5q0 -9 -3.5 -15.5t-8.5 -11.5zM136 719q-14 -14 -20.5 -25t-6.5 -29v-10q14 -6 22 -18
t8 -27q0 -21 -14.5 -35t-34.5 -14q-25 0 -37.5 16.5t-12.5 38.5v49q0 32 14 59.5t40 47.5q10 7 22 7q14 0 23.5 -9.5t9.5 -23.5q0 -16 -13 -27z" />
    <glyph glyph-name="quotedblright" unicode="&#x201d;" horiz-adv-x="295" 
d="M201 569q-10 -8 -21 -8q-14 0 -24 10t-10 24q0 15 13 26q14 14 21 25t7 30v10q-14 5 -22 17.5t-8 27.5q0 20 14 34t35 14q25 0 37 -16.5t12 -38.5v-48q0 -32 -14 -59.5t-40 -47.5zM72 569q-10 -8 -22 -8q-14 0 -23.5 10t-9.5 24q0 15 13 26q14 14 20.5 25t6.5 30v10
q-14 5 -22 17.5t-8 27.5q0 20 14.5 34t34.5 14q25 0 37.5 -16.5t12.5 -38.5v-48q0 -32 -14 -59.5t-40 -47.5z" />
    <glyph glyph-name="quoteleft" unicode="&#x2018;" horiz-adv-x="166" 
d="M136 719q-14 -14 -20.5 -25t-6.5 -29v-10q14 -6 22 -18t8 -27q0 -21 -14.5 -35t-34.5 -14q-25 0 -37.5 16.5t-12.5 38.5v49q0 32 14 59.5t40 47.5q10 7 22 7q14 0 23.5 -9.5t9.5 -23.5q0 -16 -13 -27z" />
    <glyph glyph-name="quoteright" unicode="&#x2019;" horiz-adv-x="166" 
d="M72 559q-10 -8 -22 -8q-14 0 -23.5 10t-9.5 24q0 15 13 26q14 14 20.5 25t6.5 30v10q-14 5 -22 17.5t-8 27.5q0 20 14.5 34t34.5 14q25 0 37.5 -16.5t12.5 -38.5v-48q0 -32 -14 -59.5t-40 -47.5z" />
    <glyph glyph-name="divide" unicode="&#xf7;" horiz-adv-x="673" 
d="M346 382q-24 0 -41.5 17.5t-17.5 41.5q0 25 17.5 41.5t41.5 16.5q25 0 42 -16.5t17 -41.5q0 -24 -17 -41.5t-42 -17.5zM612 198h-551q-18 0 -31 13t-13 32q0 18 13 31t31 13h551q18 0 31 -13t13 -31q0 -19 -13 -32t-31 -13zM346 -15q-24 0 -41.5 17.5t-17.5 41.5
q0 25 17.5 41.5t41.5 16.5q25 0 42 -16.5t17 -41.5q0 -24 -17 -41.5t-42 -17.5z" />
    <glyph glyph-name="lozenge" unicode="&#x25ca;" horiz-adv-x="523" 
d="M290 32q-12 -11 -29 -11t-28 11l-182 182q-12 12 -12 29t12 28l182 182q11 12 28 12t29 -12l182 -182q11 -11 11 -28t-11 -29zM261 369l-126 -126l126 -126l126 126z" />
    <glyph glyph-name="ydieresis" unicode="&#xff;" horiz-adv-x="457" 
d="M448 439l-167 -414l-87 -212q-5 -13 -16 -20.5t-25 -7.5q-18 0 -31 13t-13 31q0 9 3 17l80 196l-160 397q-3 7 -3 17q0 18 13 31t31 13q14 0 25.5 -7.5t16.5 -20.5l125 -320l126 320q5 13 16 20.5t25 7.5q19 0 32 -13t13 -31q0 -10 -4 -17zM323 598q-24 0 -41.5 17.5
t-17.5 41.5q0 25 17 42t42 17t42 -17t17 -42q0 -24 -17.5 -41.5t-41.5 -17.5zM153 598q-24 0 -41.5 17.5t-17.5 41.5q0 25 17 42t42 17t42 -17t17 -42q0 -24 -17.5 -41.5t-41.5 -17.5z" />
    <glyph glyph-name="Ydieresis" unicode="&#x178;" horiz-adv-x="588" 
d="M575 708l-227 -406v-273q0 -18 -13 -31t-31 -13t-31 13t-13 31v273l-227 406q-6 10 -6 22q0 18 13 31t31 13q12 0 22.5 -6t16.5 -16l194 -347l194 347q6 10 16.5 16t22.5 6q18 0 31 -13t13 -31q0 -12 -6 -22zM389 829q-24 0 -41.5 17.5t-17.5 41.5q0 25 17 42t42 17
t42 -17t17 -42q0 -24 -17.5 -41.5t-41.5 -17.5zM219 829q-24 0 -41.5 17.5t-17.5 41.5q0 25 17 42t42 17t42 -17t17 -42q0 -24 -17.5 -41.5t-41.5 -17.5z" />
    <glyph glyph-name="fraction" unicode="&#x2044;" horiz-adv-x="454" 
d="M81 -215q-5 -14 -16.5 -21t-25.5 -7q-23 0 -36.5 19t-4.5 42l375 935q7 17 24 24.5t34 0.5t24.5 -24t-0.5 -34z" />
    <glyph glyph-name="Euro" unicode="&#x20ac;" horiz-adv-x="754" 
d="M671 -15h-156q-66 0 -125.5 20.5t-109 56.5t-86.5 85.5t-57 108.5h-54q-18 0 -31 13t-13 31q0 19 13 32t31 13h35q-1 9 -1.5 18.5t-0.5 20.5q0 10 0.5 19.5t1.5 18.5h-35q-18 0 -31 13t-13 32q0 18 13 31t31 13h54q20 59 57 108.5t86.5 85.5t109 56.5t125.5 20.5h156
q18 0 31 -13t13 -31q0 -19 -13 -32t-31 -13h-156q-47 0 -90.5 -13.5t-80 -37.5t-65.5 -57.5t-47 -73.5h375q18 0 31 -13t13 -31q0 -19 -13 -32t-31 -13h-400q-1 -9 -1.5 -18.5t-0.5 -19.5q0 -11 0.5 -20.5t1.5 -18.5h400q18 0 31 -13t13 -32q0 -18 -13 -31t-31 -13h-375
q18 -40 47 -73.5t65.5 -57.5t80 -37.5t90.5 -13.5h156q18 0 31 -13t13 -32q0 -18 -13 -31t-31 -13z" />
    <glyph glyph-name="guilsinglleft" unicode="&#x2039;" horiz-adv-x="505" 
d="M426 -15q-13 0 -23 7l-338 213q-21 13 -21 38q0 24 21 37l338 213q15 10 33 6t28 -20q10 -15 6 -33t-20 -28l-278 -175l278 -176q16 -10 20 -27.5t-6 -33.5q-15 -21 -38 -21z" />
    <glyph glyph-name="guilsinglright" unicode="&#x203a;" horiz-adv-x="505" 
d="M445 205l-338 -213q-10 -7 -23 -7q-25 0 -38 21q-10 16 -6 33.5t20 27.5l278 176l-278 175q-16 10 -20 28t6 33q10 16 27.5 20t33.5 -6l338 -213q21 -13 21 -37q0 -25 -21 -38z" />
    <glyph glyph-name="daggerdbl" unicode="&#x2021;" horiz-adv-x="331" 
d="M291 198h-81v-282q0 -19 -13 -32t-32 -13q-18 0 -31 13t-13 32v282h-82q-18 0 -31 13t-13 32q0 18 13 31t31 13h82v124h-82q-18 0 -31 13t-13 31q0 19 13 32t31 13h82v245q0 18 13 31t31 13q19 0 32 -13t13 -31v-245h81q19 0 32 -13t13 -32q0 -18 -13 -31t-32 -13h-81
v-124h81q19 0 32 -13t13 -31q0 -19 -13 -32t-32 -13z" />
    <glyph glyph-name="periodcentered" unicode="&#xb7;" horiz-adv-x="170" 
d="M223 361q0 -32 -23 -55t-55 -23t-55 23t-23 55q0 33 22.5 55t55.5 22q32 0 55 -22t23 -55z" />
    <glyph glyph-name="quotesinglbase" unicode="&#x201a;" horiz-adv-x="166" 
d="M78 -126q-14 -9 -28 -9q-18 0 -30.5 12.5t-12.5 30.5q0 12 4.5 20t11.5 14q14 13 19 22.5t5 24.5v4q-14 8 -22 21t-8 30q0 25 17.5 41.5t41.5 16.5q31 0 45.5 -20t14.5 -45v-48q0 -34 -15.5 -64t-42.5 -51z" />
    <glyph glyph-name="quotedblbase" unicode="&#x201e;" horiz-adv-x="295" 
d="M217 -128q-13 -10 -27 -10q-19 0 -31.5 12.5t-12.5 31.5q0 11 4.5 19t11.5 15q14 13 19.5 22t5.5 25v3q-30 17 -30 51q0 26 17 42.5t42 16.5q30 0 44.5 -20t14.5 -45v-48q0 -35 -15 -64.5t-43 -50.5zM78 -128q-13 -10 -28 -10q-18 0 -30.5 12.5t-12.5 31.5q0 11 4.5 19
t11.5 15q14 13 19 22t5 25v3q-14 8 -22 21.5t-8 29.5q0 26 17.5 42.5t41.5 16.5q31 0 45.5 -20t14.5 -45v-48q0 -35 -15.5 -64.5t-42.5 -50.5z" />
    <glyph glyph-name="perthousand" unicode="&#x2030;" horiz-adv-x="819" 
d="M155 513q-29 0 -54 11t-43.5 29.5t-29.5 43.5t-11 54q0 28 11 53.5t29.5 44t43.5 29.5t54 11q28 0 53.5 -11t44 -29.5t29.5 -44t11 -53.5q0 -29 -11 -54t-29.5 -43.5t-44 -29.5t-53.5 -11zM681 -15q-29 0 -54 11t-43.5 29.5t-29.5 43.5t-11 54q0 28 11 53.5t29.5 44
t43.5 29.5t54 11q28 0 53.5 -11t44 -29.5t29.5 -44t11 -53.5q0 -29 -11 -54t-29.5 -43.5t-44 -29.5t-53.5 -11zM448 720l-284 -707q-5 -13 -16.5 -20.5t-25.5 -7.5q-18 0 -31 13t-13 31q0 9 3 17l284 707q5 13 16 20.5t25 7.5q19 0 32 -13t13 -31q0 -10 -3 -17zM396 -15
q-29 0 -54 11t-43.5 29.5t-29.5 43.5t-11 54q0 28 11 53.5t29.5 44t43.5 29.5t54 11q28 0 53.5 -11t44 -29.5t29.5 -44t11 -53.5q0 -29 -11 -54t-29.5 -43.5t-44 -29.5t-53.5 -11zM155 706q-23 0 -39 -16t-16 -39t16 -39t39 -16t39 16t16 39t-16 39t-39 16zM681 178
q-23 0 -39 -16t-16 -39t16 -39t39 -16t39 16t16 39t-16 39t-39 16zM396 178q-23 0 -39 -16t-16 -39t16 -39t39 -16t39 16t16 39t-16 39t-39 16z" />
    <glyph glyph-name="Acircumflex" unicode="&#xc2;" horiz-adv-x="725" 
d="M693 -11q-8 -4 -17 -4q-13 0 -24.5 7t-16.5 20l-79 186h-363l-79 -186q-7 -17 -24 -24t-34 1q-17 7 -24 24t1 34l90 213l211 494q5 13 16 20t25 7q13 0 24 -7t16 -20q76 -178 151 -353.5t151 -353.5q7 -17 0 -34t-24 -24zM375 623l-144 -336h287zM467 817q-17 0 -29 12
l-65 67l-65 -67q-12 -12 -29 -12t-28.5 12t-11.5 29t12 29l94 96q10 12 28 12q17 0 29 -12l94 -96q11 -13 11 -29q0 -17 -11.5 -29t-28.5 -12z" />
    <glyph glyph-name="Ecircumflex" unicode="&#xca;" horiz-adv-x="556" 
d="M491 -15h-344q-19 0 -32 13t-13 31v2v2v697q0 18 13 31t32 13h344q19 0 32 -13t13 -31q0 -19 -13 -31.5t-32 -12.5h-300v-255h253q18 0 31 -12.5t13 -31.5q0 -18 -13 -31t-31 -13h-253v-269h300q19 0 32 -13t13 -32q0 -18 -13 -31t-32 -13zM423 817q-17 0 -29 12l-65 67
l-65 -67q-12 -12 -29 -12t-28.5 12t-11.5 29t12 29l94 96q10 12 28 12q17 0 29 -12l94 -96q11 -13 11 -29q0 -17 -11.5 -29t-28.5 -12z" />
    <glyph glyph-name="Aacute" unicode="&#xc1;" horiz-adv-x="725" 
d="M693 -11q-8 -4 -17 -4q-13 0 -24.5 7t-16.5 20l-79 186h-363l-79 -186q-7 -17 -24 -24t-34 1q-17 7 -24 24t1 34l90 213l211 494q5 13 16 20t25 7q13 0 24 -7t16 -20q76 -178 151 -353.5t151 -353.5q7 -17 0 -34t-24 -24zM375 623l-144 -336h287zM360.978 795
q18.999 0 30.999 13l89.9941 90q12.999 13 12.999 31t-12.999 31t-30.998 13t-30.998 -13l-89.9951 -90q-12.999 -12 -12.999 -31q0 -18 12.999 -31q13 -13 30.998 -13z" />
    <glyph glyph-name="Edieresis" unicode="&#xcb;" horiz-adv-x="556" 
d="M491 -15h-344q-19 0 -32 13t-13 31v2v2v697q0 18 13 31t32 13h344q19 0 32 -13t13 -31q0 -19 -13 -31.5t-32 -12.5h-300v-255h253q18 0 31 -12.5t13 -31.5q0 -18 -13 -31t-31 -13h-253v-269h300q19 0 32 -13t13 -32q0 -18 -13 -31t-32 -13zM423 829q-24 0 -41.5 17.5
t-17.5 41.5q0 25 17 42t42 17t42 -17t17 -42q0 -24 -17.5 -41.5t-41.5 -17.5zM253 829q-24 0 -41.5 17.5t-17.5 41.5q0 25 17 42t42 17t42 -17t17 -42q0 -24 -17.5 -41.5t-41.5 -17.5z" />
    <glyph glyph-name="Egrave" unicode="&#xc8;" horiz-adv-x="556" 
d="M491 -15h-344q-19 0 -32 13t-13 31v2v2v697q0 18 13 31t32 13h344q19 0 32 -13t13 -31q0 -19 -13 -31.5t-32 -12.5h-300v-255h253q18 0 31 -12.5t13 -31.5q0 -18 -13 -31t-31 -13h-253v-269h300q19 0 32 -13t13 -32q0 -18 -13 -31t-32 -13zM330 795q-19 0 -31 13l-90 90
q-13 13 -13 31t13 31t31 13t31 -13l90 -90q13 -12 13 -31q0 -18 -13 -31t-31 -13z" />
    <glyph glyph-name="Iacute" unicode="&#xcd;" horiz-adv-x="246" 
d="M147 -15q-19 0 -32 13t-13 31v701q0 18 13 31t32 13q18 0 31 -13t13 -31v-701q0 -18 -13 -31t-31 -13zM125.992 795q18.999 0 30.998 13l89.9951 90q12.999 13 12.999 31t-12.999 31q-13 13 -30.999 13q-17.998 0 -30.998 -13l-89.9941 -90q-12.999 -12 -12.999 -31
q0 -18 12.999 -31t30.998 -13z" />
    <glyph glyph-name="Icircumflex" unicode="&#xce;" horiz-adv-x="237" 
d="M137 -15q-19 0 -32 13t-13 31v701q0 18 13 31t32 13q18 0 31 -13t13 -31v-701q0 -18 -13 -31t-31 -13zM223 817q-17 0 -29 12l-65 67l-65 -67q-12 -12 -29 -12t-28.5 12t-11.5 29t12 29l94 96q10 12 28 12q17 0 29 -12l94 -96q11 -13 11 -29q0 -17 -11.5 -29t-28.5 -12z
" />
    <glyph glyph-name="Idieresis" unicode="&#xcf;" horiz-adv-x="235" 
d="M136 -15q-19 0 -32 13t-13 31v701q0 18 13 31t32 13q18 0 31 -13t13 -31v-701q0 -18 -13 -31t-31 -13zM213 829q-24 0 -41.5 17.5t-17.5 41.5q0 25 17 42t42 17t42 -17t17 -42q0 -24 -17.5 -41.5t-41.5 -17.5zM43 829q-24 0 -41.5 17.5t-17.5 41.5q0 25 17 42t42 17
t42 -17t17 -42q0 -24 -17.5 -41.5t-41.5 -17.5z" />
    <glyph glyph-name="Igrave" unicode="&#xcc;" horiz-adv-x="246" 
d="M137 -15q-19 0 -32 13t-13 31v701q0 18 13 31t32 13q18 0 31 -13t13 -31v-701q0 -18 -13 -31t-31 -13zM130 795q-19 0 -31 13l-90 90q-13 13 -13 31t13 31t31 13t31 -13l90 -90q13 -12 13 -31q0 -18 -13 -31t-31 -13z" />
    <glyph glyph-name="Oacute" unicode="&#xd3;" horiz-adv-x="912" 
d="M454.973 795q18.998 0 30.998 13l89.9941 90q12.999 13 12.999 31t-12.999 31t-30.998 13t-30.998 -13l-89.9941 -90q-13 -12 -13 -31q0 -18 13 -31q12.999 -13 30.998 -13zM466 -15q-82 0 -154 31t-125.5 84.5t-84.5 125.5t-31 154q0 81 31 153t84.5 125.5t125.5 84.5
t154 31q81 0 153 -31t125.5 -84.5t84.5 -125.5t31 -153q0 -82 -31 -154t-84.5 -125.5t-125.5 -84.5t-153 -31zM466 686q-63 0 -119 -24t-98 -65.5t-66 -97.5t-24 -119t24 -119t66 -98t98 -66t119 -24t119 24t97.5 66t65.5 98t24 119t-24 119t-65.5 97.5t-97.5 65.5t-119 24z
" />
    <glyph glyph-name="Ocircumflex" unicode="&#xd4;" horiz-adv-x="912" 
d="M560 817q-17 0 -29 12l-65 67l-65 -67q-12 -12 -29 -12t-28.5 12t-11.5 29t12 29l94 96q10 12 28 12q17 0 29 -12l94 -96q11 -13 11 -29q0 -17 -11.5 -29t-28.5 -12zM466 -15q-82 0 -154 31t-125.5 84.5t-84.5 125.5t-31 154q0 81 31 153t84.5 125.5t125.5 84.5t154 31
q81 0 153 -31t125.5 -84.5t84.5 -125.5t31 -153q0 -82 -31 -154t-84.5 -125.5t-125.5 -84.5t-153 -31zM466 686q-63 0 -119 -24t-98 -65.5t-66 -97.5t-24 -119t24 -119t66 -98t98 -66t119 -24t119 24t97.5 66t65.5 98t24 119t-24 119t-65.5 97.5t-97.5 65.5t-119 24z" />
    <glyph glyph-name="Ograve" unicode="&#xd2;" horiz-adv-x="912" 
d="M463 795q-19 0 -31 13l-90 90q-13 13 -13 31t13 31t31 13t31 -13l90 -90q13 -12 13 -31q0 -18 -13 -31t-31 -13zM466 -15q-82 0 -154 31t-125.5 84.5t-84.5 125.5t-31 154q0 81 31 153t84.5 125.5t125.5 84.5t154 31q81 0 153 -31t125.5 -84.5t84.5 -125.5t31 -153
q0 -82 -31 -154t-84.5 -125.5t-125.5 -84.5t-153 -31zM466 686q-63 0 -119 -24t-98 -65.5t-66 -97.5t-24 -119t24 -119t66 -98t98 -66t119 -24t119 24t97.5 66t65.5 98t24 119t-24 119t-65.5 97.5t-97.5 65.5t-119 24z" />
    <glyph glyph-name="Uacute" unicode="&#xda;" horiz-adv-x="775" 
d="M406 -15q-63 0 -118 24t-96.5 65t-65.5 96.5t-24 118.5v441q0 18 13 31t32 13q18 0 31 -13t13 -31v-441q0 -45 17 -84t46 -68t68.5 -46t83.5 -17q45 0 84 17t68.5 46t46.5 68.5t17 83.5v441q0 18 13 31t31 13q19 0 32 -13t13 -31v-441q0 -63 -24 -118.5t-65.5 -96.5
t-97 -65t-118.5 -24zM366.978 795q18.999 0 30.998 13l89.9951 90q12.999 13 12.999 31t-12.999 31q-13 13 -30.999 13q-17.998 0 -30.998 -13l-89.9941 -90q-12.999 -12 -12.999 -31q0 -18 12.999 -31t30.998 -13z" />
    <glyph glyph-name="Ucircumflex" unicode="&#xdb;" horiz-adv-x="775" 
d="M406 -15q-63 0 -118 24t-96.5 65t-65.5 96.5t-24 118.5v441q0 18 13 31t32 13q18 0 31 -13t13 -31v-441q0 -45 17 -84t46 -68t68.5 -46t83.5 -17q45 0 84 17t68.5 46t46.5 68.5t17 83.5v441q0 18 13 31t31 13q19 0 32 -13t13 -31v-441q0 -63 -24 -118.5t-65.5 -96.5
t-97 -65t-118.5 -24zM491 817q-17 0 -29 12l-65 67l-65 -67q-12 -12 -29 -12t-28.5 12t-11.5 29t12 29l94 96q10 12 28 12q17 0 29 -12l94 -96q11 -13 11 -29q0 -17 -11.5 -29t-28.5 -12z" />
    <glyph glyph-name="Ugrave" unicode="&#xd9;" horiz-adv-x="775" 
d="M406 -15q-63 0 -118 24t-96.5 65t-65.5 96.5t-24 118.5v441q0 18 13 31t32 13q18 0 31 -13t13 -31v-441q0 -45 17 -84t46 -68t68.5 -46t83.5 -17q45 0 84 17t68.5 46t46.5 68.5t17 83.5v441q0 18 13 31t31 13q19 0 32 -13t13 -31v-441q0 -63 -24 -118.5t-65.5 -96.5
t-97 -65t-118.5 -24zM421 795q-19 0 -31 13l-90 90q-13 13 -13 31t13 31t31 13t31 -13l90 -90q13 -12 13 -31q0 -18 -13 -31t-31 -13z" />
    <glyph glyph-name="dotlessi" unicode="&#x131;" horiz-adv-x="287" 
d="M144 -15q-19 0 -32 13t-13 31v427q0 18 13 31t32 13q18 0 31 -13t13 -31v-427q0 -18 -13 -31t-31 -13z" />
    <glyph glyph-name="circumflex" unicode="&#x2c6;" horiz-adv-x="302" 
d="M245 631q-17 0 -29 12l-65 67l-65 -67q-12 -12 -29 -12t-28.5 12t-11.5 29t12 29l94 96q10 12 28 12q17 0 29 -12l94 -96q11 -13 11 -29q0 -17 -11.5 -29t-28.5 -12z" />
    <glyph glyph-name="tilde" unicode="&#x2dc;" horiz-adv-x="556" 
d="M346 634q-19 0 -37.5 7t-35.5 15.5l-31 15.5t-24 7q-7 0 -12 -6t-11 -13.5t-14.5 -13.5t-20.5 -6q-17 0 -30 12t-13 29q0 11 6 22q15 24 39 41.5t53 17.5q19 0 37 -7t34.5 -15.5t30.5 -15.5t25 -7q7 0 12 5l10.5 10.5t12.5 10.5t19 5q17 0 30 -12t13 -29
q0 -14 -9.5 -27.5t-24 -23.5t-30.5 -16t-29 -6z" />
    <glyph glyph-name="ring" unicode="&#x2da;" horiz-adv-x="263" 
d="M132 590q-24 0 -45 9t-36.5 24.5t-24.5 36t-9 44.5t9 45t24.5 36.5t36.5 24.5t45 9t44.5 -9t36 -24.5t24.5 -36.5t9 -45t-9 -44.5t-24.5 -36t-36 -24.5t-44.5 -9zM132 746q-17 0 -29.5 -12.5t-12.5 -29.5t12.5 -29t29.5 -12t29 12t12 29t-12 29.5t-29 12.5z" />
    <glyph glyph-name="cedilla" unicode="&#xb8;" horiz-adv-x="1107" 
d="M476 -159q-13 0 -26 5t-13 25q0 19 14.5 24t29.5 5q9 0 18 -0.5t18 -0.5q8 0 17.5 1t9.5 12q0 8 -9 9t-15 1q-9 0 -17.5 -1.5t-17.5 -1.5q-13 0 -21.5 7t-8.5 21q0 8 4 20t9 24q5 11 11 24.5t15 33.5v-3q9 9 22 9t21.5 -8.5t8.5 -21.5q0 -8 -6.5 -23t-10.5 -23
q26 -2 46 -15.5t20 -45.5q0 -29 -11.5 -44.5t-28.5 -22.5t-38.5 -8.5t-40.5 -1.5z" />
    <glyph glyph-name="hungarumlaut" unicode="&#x2dd;" horiz-adv-x="363" 
d="M194 744l-90 -90q-12 -13 -31 -13q-18 0 -31 13t-13 31t13 31l90 90q13 13 31 13t31 -13t13 -31q0 -19 -13 -31zM345 744l-90 -90q-12 -13 -31 -13q-18 0 -31 13t-13 31t13 31l90 90q13 13 31 13t31 -13t13 -31q0 -19 -13 -31z" />
    <glyph glyph-name="caron" unicode="&#x2c7;" horiz-adv-x="302" 
d="M151 621q-18 0 -28 12l-94 96q-12 12 -12 29t11.5 29t28.5 12t29 -12l65 -67l65 67q12 12 29 12t28.5 -12t11.5 -29q0 -16 -11 -29l-94 -96q-12 -12 -29 -12z" />
    <glyph glyph-name="Hanken" horiz-adv-x="908" 
d="M832 378q0 -78 -29.5 -147t-81 -120.5t-120.5 -81t-147 -29.5t-147 29.5t-120.5 81t-81 120.5t-29.5 147t29.5 147t81 120.5t120.5 81t147 29.5t147 -29.5t120.5 -81t81 -120.5t29.5 -147zM798 378q0 71 -27 133.5t-73.5 109t-109.5 73.5t-134 27t-133.5 -27t-109 -73.5
t-73.5 -109t-27 -133.5t27 -133.5t73.5 -109t109 -73.5t133.5 -27t134 27t109.5 73.5t73.5 109t27 133.5zM663 235q-5 -5 -12 -5t-12 5l-132 131q-5 5 -5 12t5 12l132 131q3 4 5.5 4.5t7.5 0.5h2q3 -1 4 -1.5t2 -0.5l3 -3q5 -5 5 -12t-5 -12l-119 -119l119 -119q5 -5 5 -12
t-5 -12zM472 247q0 -8 -5 -12.5t-13 -4.5q-7 0 -12 4.5t-5 12.5v262q0 8 5 13t12 5q8 0 13 -5t5 -13v-262zM406 378q0 -8 -5 -12.5t-12 -4.5h-66q-17 0 -17 17t17 17h66q7 0 12 -4.5t5 -12.5zM275 247q0 -8 -5 -12.5t-13 -4.5q-7 0 -12 4.5t-5 12.5v262q0 8 5 13t12 5
q8 0 13 -5t5 -13v-262z" />
    </font>
</defs>
</svg>
